<?xml version="1.0" standalone="no"?>
<!DOCTYPE svg PUBLIC "-//W3C//DTD SVG 1.1//EN" "http://www.w3.org/Graphics/SVG/1.1/DTD/svg11.dtd" >
<svg xmlns="http://www.w3.org/2000/svg">
<metadata>
<json>
<![CDATA[
{
	"fontFamily": "font-icon-Enerdata",
	"majorVersion": 1,
	"minorVersion": 0,
	"designer": "Alice Lapillonne",
	"designerURL": "https://alicelapillonne.com/",
	"version": "Version 1.0",
	"fontId": "font-icon-Enerdata",
	"psName": "font-icon-Enerdata",
	"subFamily": "Regular",
	"fullName": "font-icon-Enerdata",
	"description": "Font generated by IcoMoon."
}
]]>
</json>
</metadata>
<defs>
<font id="font-icon-Enerdata" horiz-adv-x="1024">
<font-face units-per-em="1024" ascent="960" descent="-64" />
<missing-glyph horiz-adv-x="1024" />
<glyph unicode="&#x20;" horiz-adv-x="512" d="" />
<glyph unicode="&#xe900;" glyph-name="user" data-tags="user" d="M652.8 455.68c79.36 48.64 130.56 133.12 130.56 232.96 0 148.48-120.32 271.36-271.36 271.36s-271.36-122.88-271.36-271.36c0-97.28 51.2-184.32 130.56-232.96-184.32-66.56-317.44-261.12-317.44-486.4 0-7.68 2.56-17.92 10.24-23.040 5.12-7.68 12.8-10.24 23.040-10.24h852.48c7.68 0 17.92 2.56 23.040 10.24 5.12 5.12 10.24 15.36 10.24 23.040-2.56 225.28-133.12 419.84-320 486.4zM304.64 688.64c0 115.2 92.16 207.36 207.36 207.36s207.36-92.16 207.36-207.36c0-115.2-92.16-207.36-207.36-207.36 0 0 0 0 0 0s0 0 0 0c-115.2 0-207.36 92.16-207.36 207.36zM120.32 0c15.36 235.52 186.88 414.72 391.68 414.72s376.32-179.2 391.68-414.72h-783.36z" />
<glyph unicode="&#xe901;" glyph-name="arrow_title" data-tags="arrow_title" d="M458.24 657.92l186.88-179.2h-386.56v-61.44h386.56l-186.88-179.2h87.040l217.6 209.92-217.6 209.92c0 0-87.040 0-87.040 0zM512 960c-281.6 0-512-230.4-512-512s230.4-512 512-512c281.6 0 512 230.4 512 512s-230.4 512-512 512zM512-2.56c-15.36-2.56-17.92 0 0 0v0zM512-2.56c-248.32 0-450.56 202.24-450.56 450.56s202.24 450.56 450.56 450.56c248.32 0 450.56-202.24 450.56-450.56 0-396.8-376.32-448-450.56-450.56z" />
<glyph unicode="&#xe902;" glyph-name="arrow_right" data-tags="arrow_right" d="M258.56-64l-87.040 99.84 478.72 412.16-478.72 412.16 87.040 99.84 593.92-512z" />
<glyph unicode="&#xe903;" glyph-name="arrow_down" data-tags="arrow_down" d="M0 701.44l99.84 87.040 412.16-478.72 412.16 478.72 99.84-87.040-512-593.92z" />
<glyph unicode="&#xe904;" glyph-name="coche" data-tags="coche" d="M363.52 104.96l-343.040 358.4c-28.16 28.16-28.16 74.24 2.56 102.4v0c28.16 28.16 74.24 28.16 102.4-2.56v0l289.28-302.080 481.28 529.92c28.16 30.72 74.24 30.72 102.4 5.12v0c30.72-28.16 30.72-74.24 5.12-102.4v0l-532.48-588.8c-12.8-15.36-33.28-23.040-53.76-23.040v0c0 0 0 0 0 0v0c-20.48 0-38.4 7.68-53.76 23.040v0z" />
<glyph unicode="&#xe905;" glyph-name="more" data-tags="more" d="M512 960c-281.6 0-512-230.4-512-512s230.4-512 512-512c281.6 0 512 230.4 512 512s-230.4 512-512 512zM512 0c-245.76 0-448 199.68-448 448s202.24 448 448 448 448-202.24 448-448-202.24-448-448-448zM468.48 652.8c-12.8 10.24-33.28 10.24-46.080-5.12-10.24-12.8-10.24-33.28 5.12-46.080l189.44-153.6-189.44-153.6c-12.8-10.24-15.36-30.72-5.12-46.080 7.68-7.68 15.36-12.8 25.6-12.8 7.68 0 15.36 2.56 20.48 7.68l222.72 179.2c7.68 5.12 12.8 15.36 12.8 25.6s-5.12 17.92-12.8 25.6l-222.72 179.2z" />
<glyph unicode="&#xe906;" glyph-name="dot" data-tags="dot" d="M1024 448c0-282.77-229.23-512-512-512s-512 229.23-512 512c0 282.77 229.23 512 512 512s512-229.23 512-512z" />
<glyph unicode="&#xe907;" glyph-name="new" data-tags="new" d="M934.4 430.080c-5.12 5.12-7.68 10.24-7.68 17.92 0 5.12 2.56 12.8 7.68 17.92l76.8 79.36c7.68 7.68 15.36 20.48 15.36 30.72 0 20.48-15.36 33.28-33.28 38.4l-104.96 30.72c-10.24 2.56-17.92 12.8-17.92 23.040 0 2.56 0 2.56 0 5.12l25.6 107.52c0 2.56 0 7.68 0 12.8 0 10.24-2.56 20.48-10.24 28.16s-17.92 10.24-28.16 10.24c-5.12 0-10.24 0-12.8-2.56l-107.52-25.6c-2.56 0-5.12 0-5.12 0-10.24 0-20.48 7.68-23.040 17.92l-30.72 104.96c-5.12 17.92-20.48 33.28-38.4 33.28-12.8 0-23.040-5.12-30.72-15.36l-79.36-76.8c-5.12-5.12-10.24-7.68-17.92-7.68-5.12 0-12.8 2.56-17.92 7.68l2.56 2.56-79.36 76.8c-10.24 7.68-20.48 12.8-33.28 12.8-20.48 0-33.28-15.36-38.4-33.28l-30.72-104.96c-2.56-10.24-12.8-17.92-23.040-17.92-2.56 0-5.12 0-5.12 0l-107.52 28.16c-2.56 0-7.68 0-12.8 0-10.24 0-20.48-2.56-28.16-10.24s-10.24-17.92-10.24-28.16c0-5.12 0-10.24 0-12.8l28.16-107.52c0-2.56 0-2.56 0-5.12 0-10.24-7.68-20.48-17.92-23.040l-104.96-30.72c-17.92-5.12-33.28-20.48-33.28-38.4 0-12.8 5.12-23.040 15.36-30.72l76.8-79.36c5.12-5.12 7.68-10.24 7.68-17.92 0-5.12-2.56-12.8-7.68-17.92l-76.8-79.36c-10.24-7.68-15.36-17.92-15.36-30.72 0-20.48 15.36-33.28 33.28-38.4l104.96-30.72c10.24-2.56 17.92-12.8 17.92-23.040 0-2.56 0-5.12 0-5.12l-28.16-107.52c0-2.56 0-7.68 0-12.8 0-10.24 2.56-20.48 10.24-28.16s17.92-10.24 28.16-10.24c5.12 0 10.24 0 12.8 0l107.52 28.16c2.56 0 2.56 0 5.12 0 10.24 0 20.48-7.68 23.040-17.92l30.72-104.96c5.12-17.92 20.48-33.28 38.4-33.28 12.8 0 23.040 5.12 30.72 15.36l79.36 76.8c5.12 5.12 10.24 7.68 17.92 7.68 5.12 0 12.8-2.56 17.92-7.68l79.36-76.8c7.68-7.68 20.48-15.36 30.72-15.36v0c17.92 0 33.28 15.36 38.4 33.28l30.72 104.96c2.56 10.24 12.8 17.92 23.040 17.92 2.56 0 2.56 0 5.12 0l107.52-25.6c5.12 0 10.24-2.56 12.8-2.56 10.24 0 20.48 2.56 28.16 10.24s10.24 17.92 10.24 28.16c0 5.12 0 10.24-2.56 12.8l-25.6 107.52c0 2.56 0 5.12 0 5.12 0 10.24 7.68 20.48 17.92 23.040l104.96 30.72c17.92 5.12 33.28 20.48 33.28 38.4 0 12.8-5.12 23.040-15.36 30.72l-74.24 79.36zM988.16 320c0 0-2.56-2.56-7.68-2.56l-104.96-30.72c-25.6-7.68-43.52-30.72-43.52-58.88 0-5.12 0-10.24 2.56-15.36l25.6-107.52c0-2.56 0-2.56 0-5.12s0-2.56 0-2.56 0 0-2.56 0-2.56 0-5.12 0l-104.96 25.6c-5.12 0-10.24 2.56-15.36 2.56-25.6 0-51.2-17.92-58.88-43.52l-30.72-104.96c0-5.12-2.56-5.12-2.56-7.68 0 0 0 0 0 0s0 0 0 0-2.56 0-7.68 5.12l-79.36 76.8c-12.8 10.24-25.6 17.92-40.96 17.92v0c-15.36 0-30.72-5.12-40.96-17.92l-79.36-76.8c-5.12-5.12-7.68-5.12-7.68-5.12s0 0 0 0-2.56 2.56-2.56 7.68l-30.72 104.96c-7.68 25.6-30.72 43.52-58.88 43.52-5.12 0-10.24 0-15.36-2.56l-104.96-25.6c-2.56 0-2.56 0-5.12 0s-2.56 0-2.56 0 0 0 0 2.56c0 0 0 2.56 0 5.12l28.16 107.52c0 5.12 2.56 10.24 2.56 15.36 0 25.6-17.92 51.2-43.52 58.88l-104.96 30.72c-5.12 0-5.12 2.56-7.68 2.56 0 0 0 0 0 0s0 2.56 5.12 7.68l76.8 79.36c7.68 10.24 12.8 25.6 12.8 40.96s-5.12 30.72-17.92 40.96l-76.8 79.36c-2.56 5.12-2.56 7.68-2.56 7.68s0 0 0 0 2.56 2.56 7.68 2.56l104.96 30.72c25.6 7.68 43.52 30.72 43.52 58.88 0 5.12 0 10.24-2.56 15.36l-25.6 104.96c0 2.56 0 5.12 0 5.12 0 2.56 0 2.56 0 2.56s0 0 2.56 0c0 0 2.56 0 5.12 0l107.52-28.16c5.12 0 10.24-2.56 15.36-2.56 25.6 0 51.2 17.92 58.88 43.52l30.72 104.96c0 5.12 2.56 5.12 2.56 7.68 0 0 0 0 0 0s2.56 0 7.68-5.12l79.36-76.8c7.68-7.68 23.040-12.8 38.4-12.8s30.72 5.12 40.96 17.92l79.36 76.8c5.12 2.56 7.68 2.56 7.68 2.56s0 0 0 0 2.56-2.56 2.56-7.68l30.72-104.96c7.68-25.6 30.72-43.52 58.88-43.52 5.12 0 10.24 0 15.36 2.56l107.52 28.16c2.56 0 5.12 0 5.12 0 2.56 0 2.56 0 2.56 0s0 0 0-2.56c0 0 0-2.56 0-5.12l-25.6-107.52c0-5.12-2.56-10.24-2.56-15.36 0-25.6 17.92-51.2 43.52-58.88l104.96-30.72c5.12 0 5.12-2.56 7.68-2.56 0 0 0 0 0 0s0-2.56-5.12-7.68l-76.8-79.36c-10.24-12.8-17.92-25.6-17.92-40.96s5.12-30.72 17.92-40.96l76.8-79.36c2.56-5.12 2.56-7.68 2.56-7.68s0 0 0 0zM332.8 396.8c0-2.56 0-5.12 0-10.24l-81.92 197.12h-35.84v-271.36h33.28v192c0 2.56 0 5.12 0 5.12l84.48-197.12h35.84v271.36h-35.84v-186.88zM422.4 312.32h107.52v30.72h-76.8v94.72h71.68v30.72h-71.68v81.92h76.8v30.72h-107.52v-268.8zM775.68 578.56l-38.4-176.64c0-2.56-2.56-7.68-2.56-12.8 0 5.12-2.56 7.68-2.56 12.8l-35.84 181.76h-30.72l-38.4-181.76c0-5.12-2.56-10.24-2.56-15.36 0 5.12-2.56 10.24-2.56 15.36l-38.4 181.76h-33.28l58.88-271.36h33.28l38.4 192 38.4-192h33.28l58.88 271.36h-33.28l-2.56-5.12z" />
<glyph unicode="&#xe908;" glyph-name="search" data-tags="search" d="M995.84-5.12l-325.12 322.56c66.56 69.12 107.52 161.28 107.52 263.68 0 209.92-168.96 378.88-378.88 378.88s-378.88-171.52-381.44-378.88c0-209.92 168.96-378.88 378.88-378.88 81.92 0 158.72 25.6 222.72 71.68l327.68-327.68c7.68-7.68 15.36-10.24 23.040-10.24s17.92 2.56 23.040 10.24c15.36 12.8 15.36 33.28 2.56 48.64zM87.040 581.12c0 171.52 140.8 312.32 312.32 312.32s312.32-140.8 312.32-312.32c0-171.52-140.8-312.32-312.32-312.32s-312.32 140.8-312.32 312.32z" />
<glyph unicode="&#xe909;" glyph-name="download" data-tags="download" d="M851.123 168.371v-139.392c-0.051-15.027-12.749-27.725-27.776-27.776h-620.109c-15.13-0.128-28.518 13.107-28.57 28.186l-1.792 139.418-65.152-0.819 1.766-139.443c0.896-51.328 42.445-92.288 93.747-92.544h620.109c51.354 0.154 92.826 41.626 92.928 92.979v139.392h-65.152zM375.322 326.81l120.806-139.776c0.205-0.256 0.461-0.41 0.64-0.614 1.050-1.101 2.176-2.125 3.328-3.098 0.563-0.486 1.075-0.947 1.664-1.382 1.331-0.973 2.739-1.766 4.224-2.509 0.538-0.282 0.998-0.589 1.51-0.819 1.715-0.768 3.507-1.357 5.35-1.766 0.384-0.128 0.691-0.307 1.075-0.358 2.227-0.486 4.506-0.742 6.861-0.742s4.659 0.282 6.861 0.742c0.435 0.077 0.87 0.282 1.331 0.41 1.715 0.461 3.456 0.973 5.069 1.69 0.563 0.256 1.075 0.589 1.638 0.87 1.434 0.742 2.79 1.536 4.070 2.483 0.614 0.435 1.178 0.947 1.766 1.459 1.126 0.922 2.202 1.894 3.174 2.944 0.23 0.256 0.538 0.461 0.742 0.691l241.51 279.578c11.776 13.619 10.189 34.202-3.354 45.978-13.594 11.776-34.202 10.266-45.978-3.354l-184.243-213.274v631.45c0 18.048-14.592 32.589-32.589 32.589s-32.589-14.541-32.589-32.589v-631.475l-184.243 213.299c-11.776 13.67-32.384 15.181-46.003 3.354-13.645-11.776-15.155-32.358-3.328-45.978l120.704-139.802z" />
<glyph unicode="&#xe90a;" glyph-name="document_download" data-tags="document_download" d="M857.6 757.76l-179.2 153.6c-33.28 28.16-84.48 46.080-128 46.080h-348.16c-51.2 0-92.16-40.96-92.16-92.16v-837.12c0-51.2 40.96-92.16 92.16-92.16h619.52c51.2 0 92.16 40.96 92.16 92.16v606.72c0 46.080-23.040 92.16-56.32 122.88zM634.88 865.28c0 0 0-2.56 0 0l181.76-156.16c0 0 0 0 0 0h-156.16c-15.36 0-28.16 12.8-28.16 28.16 2.56-2.56 2.56 128 2.56 128zM849.92 28.16c0-15.36-12.8-28.16-28.16-28.16h-619.52c-15.36 0-28.16 12.8-28.16 28.16v839.68c0 15.36 12.8 28.16 28.16 28.16h348.16c5.12 0 10.24 0 17.92-2.56v-156.16c0-51.2 40.96-92.16 92.16-92.16h186.88c0-2.56 0-5.12 0-7.68v-609.28zM601.6 240.64l-51.2-58.88v145.92c0 17.92-15.36 33.28-33.28 33.28s-30.72-12.8-30.72-30.72v-153.6l-5.12 5.12-61.44 56.32c-12.8 12.8-33.28 12.8-46.080 0s-12.8-33.28 2.56-46.080l122.88-112.64c2.56-2.56 5.12-2.56 7.68-5.12 0 0 2.56-2.56 2.56-2.56 5.12-2.56 7.68-2.56 12.8-2.56 0 0 0 0 2.56 0s5.12 0 7.68 2.56c2.56 0 2.56 0 5.12 0s2.56 2.56 5.12 2.56c2.56 0 2.56 2.56 5.12 2.56 0 0 0 0 0 0l107.52 122.88c12.8 12.8 10.24 33.28-2.56 46.080-17.92 10.24-38.4 10.24-51.2-5.12zM291.84 642.56h209.92c17.92 0 33.28 15.36 33.28 33.28s-15.36 33.28-33.28 33.28h-209.92c-17.92 0-33.28-15.36-33.28-33.28 0-20.48 15.36-33.28 33.28-33.28zM732.16 606.72h-440.32c-17.92 0-33.28-15.36-33.28-33.28s15.36-33.28 33.28-33.28h440.32c17.92 0 33.28 15.36 33.28 33.28s-15.36 33.28-33.28 33.28zM732.16 506.88h-440.32c-17.92 0-33.28-15.36-33.28-33.28s15.36-33.28 33.28-33.28h440.32c17.92 0 33.28 15.36 33.28 33.28s-15.36 33.28-33.28 33.28z" />
<glyph unicode="&#xe90b;" glyph-name="document_pdf" data-tags="document_pdf" d="M76.8 729.6h-76.8v-302.080h56.32v110.080h12.8c30.72 0 53.76 7.68 69.12 25.6s23.040 40.96 23.040 74.24c2.56 61.44-25.6 92.16-84.48 92.16zM97.28 599.040c-7.68-7.68-17.92-10.24-30.72-10.24h-10.24v94.72h12.8c12.8 0 23.040-2.56 28.16-10.24s10.24-20.48 10.24-35.84c0-17.92-2.56-30.72-10.24-38.4zM368.64 468.48c20.48 25.6 30.72 64 30.72 115.2 0 46.080-10.24 81.92-28.16 110.080-20.48 25.6-46.080 38.4-81.92 38.4h-81.92v-302.080h74.24c35.84 0 66.56 12.8 87.040 38.4zM261.12 680.96h23.040c35.84 0 56.32-33.28 56.32-99.84 0-33.28-5.12-58.88-15.36-76.8s-25.6-25.6-46.080-25.6h-17.92v202.24zM445.44 430.080h56.32v120.32h74.24v48.64h-74.24v84.48h79.36v46.080h-135.68v-299.52zM627.2 360.96c-17.92 0-33.28-15.36-33.28-33.28v-153.6l-5.12 5.12-61.44 56.32c-12.8 12.8-33.28 12.8-46.080 0s-12.8-33.28 0-46.080l122.88-112.64c2.56-2.56 5.12-2.56 7.68-5.12 0 0 2.56-2.56 2.56-2.56 5.12-2.56 7.68-2.56 12.8-2.56h2.56c2.56 0 5.12 0 7.68 2.56 0 0 2.56 0 2.56 0 2.56 0 2.56 2.56 5.12 2.56s2.56 2.56 5.12 2.56c0 0 0 0 0 0l107.52 122.88c12.8 12.8 10.24 33.28-2.56 46.080s-33.28 10.24-46.080-2.56l-51.2-58.88v145.92c2.56 20.48-12.8 33.28-30.72 33.28zM967.68 757.76l-179.2 153.6c-33.28 28.16-84.48 46.080-128 46.080h-350.72c-51.2 0-92.16-40.96-92.16-92.16v-76.8h64v76.8c0 15.36 12.8 28.16 28.16 28.16h348.16c5.12 0 10.24 0 17.92-2.56v-156.16c0-51.2 40.96-92.16 92.16-92.16h186.88c0-2.56 0-5.12 0-7.68v-606.72c0-15.36-12.8-28.16-28.16-28.16h-616.96c-15.36 0-28.16 12.8-28.16 28.16v340.48h-64v-340.48c0-51.2 40.96-92.16 92.16-92.16h619.52c51.2 0 92.16 40.96 92.16 92.16v606.72c0 46.080-20.48 92.16-53.76 122.88zM770.56 709.12c-15.36 0-28.16 12.8-28.16 28.16v128c0 0 2.56 0 2.56-2.56l179.2-153.6c0 0 0 0 2.56-2.56h-156.16z" />
<glyph unicode="&#xe90c;" glyph-name="document_xls" data-tags="document_xls" d="M970.24 757.76l-179.2 153.6c-30.72 25.6-87.040 46.080-128 46.080h-353.28c-51.2 0-92.16-40.96-92.16-92.16v-76.8h64v76.8c0 15.36 12.8 28.16 28.16 28.16h348.16c5.12 0 10.24 0 17.92-2.56v-156.16c0-51.2 40.96-92.16 92.16-92.16h186.88c0-2.56 0-5.12 0-7.68v-609.28c0-15.36-12.8-28.16-28.16-28.16h-616.96c-15.36 0-28.16 12.8-28.16 28.16v343.040h-64v-340.48c0-51.2 40.96-92.16 92.16-92.16h622.080c51.2 0 92.16 40.96 92.16 92.16v606.72c2.56 43.52-23.040 97.28-53.76 122.88zM773.12 709.12c-15.36 0-28.16 12.8-28.16 28.16v128c0 0 2.56 0 2.56-2.56l179.2-153.6c0 0-153.6 0-153.6 0zM194.56 719.36h-58.88l-33.28-97.28-40.96 97.28h-56.32l64-143.36-69.12-156.16h58.88l40.96 107.52 43.52-107.52h58.88l-69.12 153.6 61.44 145.92zM509.44 463.36c-17.92 0-38.4 7.68-61.44 23.040v-56.32c17.92-10.24 40.96-15.36 66.56-15.36s46.080 7.68 61.44 23.040c15.36 15.36 20.48 35.84 20.48 64 0 17.92-5.12 33.28-12.8 46.080s-20.48 28.16-40.96 40.96c-15.36 10.24-25.6 17.92-30.72 25.6s-7.68 15.36-7.68 25.6c0 10.24 2.56 17.92 7.68 25.6 5.12 5.12 12.8 7.68 20.48 7.68s15.36-2.56 23.040-5.12 15.36-7.68 20.48-10.24l17.92 46.080c-20.48 12.8-43.52 20.48-66.56 20.48s-43.52-7.68-58.88-23.040c-15.36-15.36-20.48-35.84-20.48-61.44 0-12.8 2.56-25.6 5.12-35.84s7.68-20.48 15.36-28.16c7.68-7.68 15.36-17.92 28.16-25.6 15.36-10.24 25.6-20.48 30.72-28.16 7.68-7.68 10.24-17.92 10.24-28.16s-2.56-17.92-7.68-23.040c-2.56-5.12-10.24-7.68-20.48-7.68zM258.56 719.36v-302.080h133.12v48.64h-76.8v253.44h-56.32zM624.64 360.96c-17.92 0-33.28-15.36-33.28-33.28v-153.6l-66.56 61.44c-12.8 12.8-33.28 12.8-46.080-2.56-12.8-12.8-12.8-33.28 2.56-46.080l120.32-115.2c2.56-2.56 5.12-5.12 10.24-5.12v0c2.56-2.56 7.68-2.56 12.8-2.56 0 0 0 0 2.56 0v0c5.12 0 7.68 0 10.24 2.56v0c2.56 2.56 7.68 5.12 10.24 7.68v0l107.52 120.32c12.8 12.8 10.24 33.28-2.56 46.080s-33.28 10.24-46.080-2.56l-51.2-58.88v145.92c0 23.040-12.8 35.84-30.72 35.84z" />
<glyph unicode="&#xe90d;" glyph-name="document_png" data-tags="document_png" d="M76.8 721.92h-76.8v-302.080h56.32v110.080h12.8c30.72 0 53.76 7.68 69.12 25.6s23.040 40.96 23.040 74.24c2.56 61.44-25.6 92.16-84.48 92.16zM97.28 591.36c-7.68-7.68-17.92-12.8-30.72-12.8h-10.24v94.72h12.8c12.8 0 23.040-2.56 28.16-10.24s10.24-20.48 10.24-35.84c0-15.36-2.56-28.16-10.24-35.84zM624.64 360.96c-17.92 0-33.28-15.36-33.28-33.28v-153.6l-66.56 61.44c-12.8 12.8-33.28 12.8-46.080-2.56-12.8-12.8-12.8-33.28 2.56-46.080l120.32-115.2c2.56-2.56 5.12-5.12 10.24-5.12v0c2.56-2.56 7.68-2.56 12.8-2.56 0 0 0 0 2.56 0v0c5.12 0 7.68 0 10.24 2.56v0c2.56 2.56 7.68 5.12 10.24 7.68v0l110.080 120.32c12.8 12.8 10.24 33.28-2.56 46.080s-33.28 10.24-46.080-2.56l-51.2-58.88v145.92c-2.56 23.040-15.36 35.84-33.28 35.84zM245.76 586.24c0 17.92-2.56 35.84-5.12 53.76h2.56l92.16-217.6h69.12v299.52h-51.2v-163.84c0-20.48 2.56-35.84 5.12-51.2h-2.56l-92.16 215.040h-69.12v-302.080h51.2v166.4zM570.88 678.4c15.36 0 30.72-5.12 48.64-15.36l17.92 46.080c-23.040 12.8-46.080 17.92-71.68 17.92-38.4 0-69.12-12.8-89.6-40.96s-33.28-64-33.28-112.64c0-51.2 10.24-89.6 28.16-115.2s46.080-40.96 81.92-40.96c28.16 0 56.32 5.12 84.48 17.92v153.6h-92.16v-48.64h38.4v-69.12c-10.24-2.56-17.92-2.56-28.16-2.56-17.92 0-30.72 10.24-38.4 28.16-10.24 17.92-12.8 43.52-12.8 76.8s5.12 58.88 17.92 76.8c10.24 17.92 23.040 28.16 48.64 28.16zM970.24 760.32l-179.2 153.6c-30.72 25.6-87.040 46.080-128 46.080h-353.28c-51.2 0-92.16-40.96-92.16-92.16v-76.8h64v76.8c0 15.36 12.8 28.16 28.16 28.16h348.16c5.12 0 10.24 0 17.92-2.56v-156.16c0-51.2 40.96-92.16 92.16-92.16h186.88c0-2.56 0-5.12 0-7.68v-609.28c0-15.36-12.8-28.16-28.16-28.16h-616.96c-15.36 0-28.16 12.8-28.16 28.16v340.48h-64v-340.48c0-51.2 40.96-92.16 92.16-92.16h622.080c51.2 0 92.16 40.96 92.16 92.16v609.28c2.56 43.52-23.040 97.28-53.76 122.88zM773.12 711.68c-15.36 0-28.16 12.8-28.16 28.16v128c0 0 2.56 0 2.56-2.56l179.2-153.6c0 0-153.6 0-153.6 0z" />
<glyph unicode="&#xe90e;" glyph-name="subscribe" data-tags="subscribe" d="M284.16 634.88v0l-58.88-66.56-28.16 30.72c-12.8 12.8-33.28 15.36-46.080 2.56s-15.36-33.28-2.56-46.080l53.76-58.88c5.12-7.68 15.36-10.24 23.040-10.24v0c10.24 0 17.92 5.12 23.040 10.24l81.92 94.72c12.8 12.8 10.24 33.28-2.56 46.080-10.24 12.8-30.72 12.8-43.52-2.56zM284.16 465.92v0l-58.88-69.12-28.16 30.72c-12.8 12.8-33.28 15.36-46.080 2.56s-15.36-33.28-2.56-46.080l53.76-58.88c5.12-7.68 15.36-10.24 23.040-10.24v0c10.24 0 17.92 5.12 23.040 10.24l84.48 97.28c12.8 12.8 10.24 33.28-2.56 46.080s-33.28 10.24-46.080-2.56zM240.64 271.36c-46.080 0-84.48-38.4-84.48-84.48s38.4-84.48 84.48-84.48c46.080 0 84.48 38.4 84.48 84.48s-38.4 84.48-84.48 84.48zM240.64 168.96c-10.24 0-17.92 7.68-17.92 17.92s7.68 17.92 17.92 17.92c10.24 0 17.92-7.68 17.92-17.92s-7.68-17.92-17.92-17.92zM1011.2 855.040l-92.16 92.16c-7.68 7.68-20.48 12.8-30.72 12.8s-23.040-5.12-30.72-12.8l-151.040-151.040-135.68 117.76c-35.84 28.16-84.48 46.080-128 46.080h-350.72c-51.2 0-92.16-40.96-92.16-92.16v-837.12c0-51.2 40.96-92.16 92.16-92.16h619.52c51.2 0 92.16 40.96 92.16 92.16v555.52l204.8 204.8c10.24 10.24 15.36 20.48 15.36 33.28 0 10.24-5.12 20.48-12.8 30.72zM524.8 865.28c0 0 2.56-2.56 0 0l133.12-115.2-40.96-40.96h-76.8c-2.56 0-5.12 0-7.68 5.12s-7.68 12.8-7.68 23.040c0-2.56 0 128 0 128zM739.84 28.16c0-15.36-12.8-28.16-28.16-28.16h-619.52c-15.36 0-28.16 12.8-28.16 28.16v839.68c0 15.36 12.8 28.16 28.16 28.16h348.16c5.12 0 10.24 0 17.92-2.56v-156.16c0-46.080 30.72-92.16 81.92-92.16h12.8l-125.44-125.44c-7.68-10.24-15.36-17.92-20.48-30.72l-56.32-151.040c-2.56-2.56-2.56-7.68-2.56-15.36s2.56-17.92 10.24-25.6c7.68-7.68 17.92-10.24 25.6-10.24v0c5.12 0 10.24 0 12.8 2.56l153.6 56.32c12.8 5.12 20.48 10.24 30.72 20.48l158.72 158.72v-496.64zM455.68 427.52l35.84-35.84-58.88-23.040 23.040 58.88zM550.4 424.96l-61.44 61.44 327.68 327.68 61.44-61.44-327.68-327.68zM924.16 798.72l-61.44 61.44 25.6 25.6 61.44-61.44-25.6-25.6z" />
<glyph unicode="&#xe90f;" glyph-name="reports" data-tags="reports" d="M522.24 355.84c-10.24 0-20.48-10.24-20.48-20.48v-104.96h-107.52c-10.24 0-20.48-10.24-20.48-20.48 0-81.92 66.56-145.92 148.48-145.92s148.48 66.56 148.48 145.92c0 79.36-66.56 145.92-148.48 145.92zM522.24 102.4c-53.76 0-97.28 35.84-107.52 84.48h107.52c10.24 0 20.48 10.24 20.48 20.48v104.96c51.2-10.24 89.6-51.2 89.6-104.96-2.56-56.32-51.2-104.96-110.080-104.96zM983.040 721.92l-174.080 145.92c-20.48 17.92-58.88 30.72-87.040 30.72h-204.8l-33.28 28.16c-23.040 20.48-58.88 33.28-89.6 33.28h-325.12c-38.4 0-69.12-30.72-69.12-69.12v-724.48c0-38.4 30.72-69.12 69.12-69.12h92.16v-89.6c0-38.4 30.72-69.12 69.12-69.12h555.52c38.4 0 69.12 30.72 69.12 69.12v30.72h92.16c38.4 0 69.12 30.72 69.12 69.12v527.36c7.68 30.72-10.24 69.12-33.28 87.040zM783.36 803.84l135.68-115.2h-130.56c-2.56 0-5.12 2.56-5.12 5.12v110.080zM757.76 591.36h-130.56c-2.56 0-5.12 2.56-5.12 5.12v107.52l135.68-112.64zM719.36 834.56v-128l-23.040 17.92c-5.12 23.040-28.16 46.080-40.96 56.32l-61.44 51.2h125.44zM458.24 865.28l76.8-64h-76.8v64zM163.84 739.84h-35.84v-64h35.84v-35.84h-35.84v-64h35.84v-414.72h-94.72c-2.56 0-5.12 2.56-5.12 5.12v724.48c0 2.56 2.56 5.12 5.12 5.12h322.56v-94.72h-158.72c-33.28 0-64-28.16-69.12-61.44zM796.16 5.12c0-2.56-2.56-5.12-5.12-5.12h-558.080c-2.56 0-5.12 2.56-5.12 5.12v724.48c0 2.56 2.56 5.12 5.12 5.12h322.56v-138.24c0-38.4 30.72-69.12 69.12-69.12h168.96v-522.24zM960 104.96c0-2.56-2.56-5.12-5.12-5.12h-92.16v435.2c0 30.72-17.92 66.56-40.96 87.040l-2.56 2.56h140.8v-519.68zM483.84 353.28c-56.32-7.68-102.4-51.2-110.080-107.52h110.080v107.52zM291.84 414.72h368.64v64h-368.64v-64zM483.84 581.12h-192v-64h192v64z" />
<glyph unicode="&#xe910;" glyph-name="custom" data-tags="custom" d="M936.96 483.84c-35.84 20.48-76.8 28.16-112.64 23.040v151.040c0 25.6-10.24 61.44-30.72 79.36l-230.4 192c-23.040 17.92-58.88 30.72-87.040 30.72h-407.040c-38.4 0-69.12-30.72-69.12-69.12v-883.2c0-40.96 30.72-71.68 69.12-71.68h578.56c2.56 0 2.56 0 5.12 0 0 0 2.56 0 2.56 0h94.72c38.4 0 69.12 30.72 69.12 69.12v192c20.48-5.12 35.84-5.12 51.2-5.12 53.76 0 104.96 25.6 133.12 71.68 43.52 74.24 12.8 171.52-66.56 220.16zM535.040 865.28l189.44-158.72h-184.32c-2.56 0-5.12 2.56-5.12 5.12v153.6zM69.12 2.56c-2.56 0-5.12 2.56-5.12 5.12v883.2c0 2.56 2.56 5.12 5.12 5.12h399.36v-181.76c0-38.4 30.72-69.12 69.12-69.12h217.6v-158.72c-17.92-12.8-33.28-28.16-46.080-48.64-15.36-25.6-20.48-56.32-17.92-87.040l-23.040 15.36c-181.76 327.68-273.92 412.16-276.48 417.28-5.12 2.56-10.24 5.12-15.36 7.68l-145.92 33.28c-15.36 5.12-28.16-2.56-35.84-12.8-7.68-12.8-7.68-28.16 2.56-38.4l186.88-225.28-235.52 151.040c-12.8 7.68-28.16 7.68-38.4-2.56-10.24-7.68-15.36-23.040-10.24-35.84l56.32-145.92c2.56-5.12 5.12-10.24 10.24-12.8 2.56-2.56 40.96-33.28 151.040-89.6-38.4-23.040-66.56-61.44-71.68-107.52h133.12v76.8c7.68-5.12 17.92-7.68 25.6-12.8v-92.16h-135.68c-10.24 0-20.48-10.24-20.48-20.48 0-94.72 79.36-171.52 174.080-171.52 17.92 0 38.4 2.56 56.32 10.24 5.12-33.28 17.92-64 40.96-92.16h-450.56zM619.52 263.68c-7.68 0-15.36 0-20.48-2.56 0 7.68 0 15.36-2.56 25.6 2.56 0 5.12-2.56 7.68-2.56l15.36-20.48zM535.040 465.92l-225.28 273.92 43.52-10.24c17.92-17.92 76.8-87.040 181.76-263.68zM496.64 396.8c-184.32 81.92-261.12 133.12-281.6 148.48l-17.92 43.52 299.52-192zM478.72 138.24c-17.92-7.68-35.84-12.8-56.32-12.8-66.56 0-122.88 48.64-133.12 110.080h133.12c10.24 0 20.48 10.24 20.48 20.48v92.16c30.72-12.8 66.56-28.16 104.96-43.52 5.12-15.36 10.24-30.72 10.24-48.64 0-2.56 0-5.12 2.56-7.68-10.24-5.12-20.48-10.24-28.16-17.92-30.72-23.040-48.64-56.32-53.76-92.16zM706.56 20.48c-12.8-10.24-30.72-17.92-46.080-17.92h-10.24c-28.16 0-58.88 15.36-79.36 40.96-17.92 23.040-28.16 48.64-25.6 74.24 0 25.6 10.24 48.64 28.16 61.44 15.36 12.8 33.28 17.92 51.2 17.92 5.12 0 10.24 0 15.36 0 25.6-5.12 51.2-17.92 69.12-40.96 35.84-43.52 33.28-104.96-2.56-135.68zM757.76 199.68c-5.12 10.24-10.24 20.48-15.36 28.16 5.12-2.56 10.24-2.56 15.36-5.12v-23.040zM947.2 296.96c-25.6-43.52-84.48-53.76-133.12-25.6 0 0 0 0 0 0l-7.68 5.12c-43.52 30.72-58.88 84.48-35.84 125.44 25.6 43.52 87.040 53.76 135.68 25.6 46.080-30.72 66.56-87.040 40.96-130.56z" />
<glyph unicode="&#xe911;" glyph-name="mail" data-tags="mail" d="M957.44 816.64h-890.88c-35.84 0-66.56-30.72-66.56-66.56v-601.6c0-35.84 30.72-66.56 66.56-66.56h888.32c38.4 0 66.56 30.72 66.56 66.56v601.6c2.56 35.84-28.16 66.56-64 66.56zM908.8 750.080l-396.8-378.88-396.8 378.88h793.6zM957.44 145.92h-890.88c0 0-2.56 0-2.56 2.56v558.080l448-424.96 448 424.96-2.56-560.64c2.56 0 0 0 0 0z" />
<glyph unicode="&#xe912;" glyph-name="newsletter" data-tags="newsletter" d="M865.28 675.84l-2.56-2.56v92.16c0 48.64-40.96 89.6-89.6 89.6h-130.56l-130.56 104.96-130.56-104.96h-130.56c-48.64 0-89.6-40.96-89.6-89.6v-92.16l-2.56 2.56-158.72-128v-514.56c0-23.040 10.24-43.52 23.040-64 12.8-15.36 33.28-33.28 61.44-33.28h855.040c28.16 0 46.080 17.92 61.44 35.84s23.040 40.96 23.040 64v512l-158.72 128zM862.72 593.92l76.8-61.44-76.8-61.44c0 2.56 0 122.88 0 122.88zM512 875.52l25.6-20.48h-51.2l25.6 20.48zM225.28 765.44c0 12.8 10.24 25.6 25.6 25.6h522.24c12.8 0 25.6-10.24 25.6-25.6v-345.6l-286.72-227.84-286.72 230.4v343.040zM161.28 593.92v-120.32l-76.8 61.44 76.8 58.88zM957.44 35.84c0-5.12-2.56-15.36-10.24-25.6-2.56-5.12-7.68-7.68-7.68-10.24h-852.48c-2.56 0-5.12 5.12-7.68 10.24-7.68 10.24-10.24 20.48-10.24 25.6v427.52l445.44-358.4 445.44 358.4v-427.52zM624.64 399.36c-20.48-7.68-40.96-12.8-61.44-15.36s-38.4-5.12-56.32-5.12c-46.080 0-79.36 12.8-102.4 35.84s-35.84 56.32-35.84 102.4c0 33.28 5.12 61.44 17.92 87.040s30.72 43.52 53.76 56.32c23.040 12.8 51.2 20.48 84.48 20.48 25.6 0 46.080-5.12 66.56-15.36s35.84-25.6 46.080-46.080c10.24-20.48 15.36-43.52 15.36-69.12 0-23.040-2.56-43.52-10.24-58.88-5.12-15.36-15.36-23.040-25.6-23.040-12.8 0-17.92 10.24-17.92 33.28l5.12 117.76c-10.24 2.56-25.6 7.68-40.96 10.24s-30.72 5.12-46.080 5.12c-35.84 0-61.44-10.24-84.48-30.72-20.48-20.48-33.28-48.64-33.28-81.92 0-30.72 7.68-53.76 25.6-69.12 15.36-17.92 38.4-25.6 66.56-25.6 25.6 0 48.64 10.24 66.56 30.72h5.12c5.12-10.24 10.24-17.92 20.48-23.040s20.48-7.68 30.72-7.68c17.92 0 33.28 5.12 46.080 15.36s23.040 25.6 30.72 46.080c7.68 17.92 10.24 40.96 10.24 64 0 35.84-7.68 66.56-23.040 92.16s-35.84 46.080-64 61.44c-28.16 15.36-58.88 20.48-94.72 20.48-40.96 0-79.36-10.24-110.080-28.16-25.6-20.48-51.2-46.080-66.56-79.36s-25.6-69.12-25.6-107.52c0-56.32 17.92-102.4 51.2-133.12 33.28-33.28 81.92-48.64 143.36-48.64 40.96 0 79.36 7.68 115.2 23.040v46.080zM550.4 532.48c-2.56-23.040-5.12-38.4-12.8-48.64s-17.92-15.36-33.28-15.36c-28.16 0-40.96 17.92-40.96 51.2 0 20.48 5.12 38.4 17.92 51.2 10.24 12.8 25.6 17.92 46.080 17.92 10.24 0 20.48 0 28.16-2.56l-5.12-53.76z" />
<glyph unicode="&#xe913;" glyph-name="news" data-tags="news" d="M317.44 371.2h445.44v64h-445.44v-64zM860.16 542.72c7.68 10.24 12.8 23.040 12.8 40.96 0 10.24-2.56 20.48-7.68 30.72-5.12 7.68-12.8 17.92-25.6 25.6-7.68 5.12-15.36 10.24-17.92 15.36s-2.56 10.24-2.56 17.92c0 7.68 2.56 12.8 5.12 15.36s7.68 5.12 12.8 5.12c5.12 0 10.24 0 15.36-2.56s7.68-5.12 12.8-7.68l10.24 28.16c-12.8 7.68-25.6 12.8-40.96 12.8s-25.6-5.12-35.84-15.36c-7.68-10.24-12.8-23.040-12.8-38.4 0-7.68 0-15.36 2.56-23.040s5.12-12.8 10.24-17.92c5.12-5.12 10.24-10.24 17.92-15.36 10.24-7.68 15.36-12.8 20.48-17.92s5.12-10.24 5.12-17.92c0-7.68-2.56-10.24-5.12-15.36-2.56-2.56-7.68-5.12-15.36-5.12-10.24 0-23.040 5.12-38.4 12.8v-35.84c10.24-7.68 25.6-10.24 40.96-10.24 15.36 5.12 28.16 10.24 35.84 17.92zM317.44 232.96h332.8v64h-332.8v-64zM348.16 634.88c0 12.8 0 23.040-2.56 33.28h2.56l56.32-138.24h40.96v192h-30.72v-102.4c0-12.8 0-23.040 2.56-33.28h-2.56l-56.32 135.68h-40.96v-189.44h30.72v102.4zM650.24 532.48l17.92 99.84 5.12 38.4v10.24c0-17.92 2.56-33.28 5.12-48.64l17.92-99.84h43.52l33.28 189.44h-33.28l-15.36-107.52c-2.56-7.68-2.56-25.6-7.68-51.2-2.56 17.92-2.56 33.28-5.12 48.64l-20.48 110.080h-35.84l-20.48-107.52c-2.56-10.24-2.56-25.6-5.12-48.64-2.56 23.040-5.12 40.96-5.12 51.2l-15.36 107.52h-33.28l33.28-189.44h40.96zM967.68 901.12h-742.4c-30.72 0-56.32-25.6-56.32-56.32v-202.24h-168.96v-517.12c0-71.68 51.2-128 115.2-128 2.56 0 7.68 0 10.24 0v0h839.68c30.72 0 56.32 25.6 56.32 56.32v788.48c2.56 33.28-23.040 58.88-53.76 58.88zM166.4 125.44c0-33.28-23.040-64-51.2-64s-51.2 28.16-51.2 64v450.56h102.4v-450.56zM960 61.44h-742.4c10.24 17.92 15.36 40.96 15.36 64v709.12h727.040v-773.12zM560.64 563.2h-48.64v53.76h46.080v30.72h-46.080v46.080h48.64v28.16h-81.92v-189.44h81.92v30.72z" />
<glyph unicode="&#xe914;" glyph-name="app" data-tags="app" d="M64 189.44v542.72h801.28v-427.52h66.56v563.2c0 51.2-40.96 92.16-92.16 92.16h-747.52c-51.2 0-92.16-40.96-92.16-92.16v-678.4c0-51.2 40.96-92.16 92.16-92.16h542.72v64h-542.72c-15.36 0-28.16 12.8-28.16 28.16zM64 867.84c0 15.36 12.8 28.16 28.16 28.16h744.96c15.36 0 28.16-12.8 28.16-28.16v-71.68h-801.28v71.68zM163.84 880.64c-20.48 0-35.84-15.36-35.84-35.84 0-17.92 15.36-33.28 33.28-33.28s33.28 15.36 33.28 33.28-12.8 35.84-30.72 35.84zM281.6 880.64c-17.92 0-33.28-15.36-33.28-33.28s15.36-33.28 33.28-33.28 33.28 15.36 33.28 33.28-12.8 33.28-33.28 33.28zM401.92 880.64c-17.92 0-33.28-15.36-33.28-33.28s15.36-33.28 33.28-33.28c17.92 0 33.28 15.36 33.28 33.28s-12.8 33.28-33.28 33.28zM775.68 642.56h-245.76c-17.92 0-33.28-15.36-33.28-33.28s15.36-33.28 33.28-33.28h245.76c17.92 0 33.28 15.36 33.28 33.28 0 20.48-15.36 33.28-33.28 33.28zM775.68 547.84h-245.76c-17.92 0-33.28-15.36-33.28-33.28s15.36-33.28 33.28-33.28h245.76c17.92 0 33.28 15.36 33.28 33.28s-15.36 33.28-33.28 33.28zM775.68 450.56h-245.76c-17.92 0-33.28-15.36-33.28-33.28s15.36-33.28 33.28-33.28h245.76c17.92 0 33.28 15.36 33.28 33.28 0 20.48-15.36 33.28-33.28 33.28zM1024 184.32c0 12.8-7.68 25.6-20.48 30.72l-358.4 143.36c-12.8 5.12-25.6 2.56-35.84-7.68s-12.8-23.040-7.68-35.84l143.36-358.4c5.12-12.8 17.92-20.48 30.72-20.48v0c12.8 0 25.6 7.68 30.72 20.48l23.040 61.44 51.2-51.2c5.12-5.12 15.36-10.24 23.040-10.24s17.92 2.56 23.040 10.24l66.56 69.12c5.12 5.12 10.24 15.36 10.24 23.040s-2.56 17.92-10.24 23.040l-51.2 51.2 61.44 23.040c12.8 2.56 20.48 15.36 20.48 28.16zM903.68 35.84l-64 64c-5.12 5.12-15.36 10.24-23.040 10.24-2.56 0-5.12 0-7.68 0-10.24-2.56-20.48-10.24-23.040-20.48l-10.24-28.16-40.96 102.4-43.52 104.96 110.080-43.52 102.4-40.96-28.16-10.24c-10.24-5.12-17.92-12.8-20.48-23.040s0-23.040 7.68-30.72l64-64-23.040-20.48zM279.040 240.64c102.4 0 184.32 81.92 184.32 184.32s-81.92 184.32-184.32 184.32c-7.68 0-17.92-2.56-23.040-10.24-5.12-5.12-10.24-15.36-10.24-23.040v-117.76h-117.76c-7.68 0-17.92-2.56-23.040-10.24-5.12-5.12-10.24-15.36-10.24-23.040 0-99.84 81.92-184.32 184.32-184.32zM279.040 394.24c7.68 0 17.92 2.56 23.040 10.24 5.12 5.12 10.24 15.36 10.24 23.040v115.2c48.64-15.36 87.040-58.88 87.040-115.2 0-66.56-53.76-117.76-117.76-117.76-53.76 0-99.84 35.84-115.2 87.040h112.64zM232.96 601.6c-66.56-10.24-120.32-61.44-130.56-128h130.56v128z" />
<glyph unicode="&#xe915;" glyph-name="free_trial" data-tags="free_trial" d="M939.52 299.52l66.56 38.4c10.24 7.68 17.92 20.48 15.36 33.28s-10.24 23.040-23.040 25.6l-414.72 97.28c-12.8 2.56-25.6-2.56-33.28-12.8s-7.68-25.6-2.56-35.84l220.16-373.76c5.12-10.24 15.36-15.36 28.16-15.36 2.56 0 2.56 0 5.12 0 12.8 2.56 23.040 12.8 25.6 25.6l15.36 79.36 69.12-51.2c7.68-5.12 15.36-7.68 23.040-5.12s15.36 5.12 20.48 12.8l61.44 87.040c5.12 7.68 7.68 15.36 5.12 23.040 0 7.68-5.12 15.36-12.8 20.48l-69.12 51.2zM921.6 179.2l-84.48 61.44c-7.68 7.68-20.48 7.68-30.72 5.12-10.24-5.12-17.92-12.8-20.48-23.040l-10.24-46.080-66.56 115.2-69.12 122.88 135.68-30.72 128-30.72-38.4-23.040c-10.24-5.12-15.36-15.36-15.36-25.6s5.12-20.48 12.8-28.16l84.48-61.44-25.6-35.84zM719.36 61.44h-192v87.040h99.84v64h-537.6c-15.36 0-25.6 12.8-25.6 28.16v565.76c0 15.36 12.8 28.16 25.6 28.16h811.52c15.36 0 25.6-12.8 25.6-28.16v-337.92h64v337.92c0 51.2-40.96 92.16-89.6 92.16h-811.52c-48.64 0-89.6-40.96-89.6-92.16v-565.76c0-51.2 40.96-92.16 89.6-92.16h373.76v-87.040h-192c-17.92 0-30.72-15.36-30.72-33.28s15.36-33.28 30.72-33.28h445.44c17.92 0 30.72 15.36 30.72 33.28 2.56 20.48-10.24 33.28-28.16 33.28z" />
<glyph unicode="&#xe916;" glyph-name="schedule_demo" data-tags="schedule_demo" d="M962.56-12.8v0c-71.68 104.96-174.080 184.32-294.4 222.72 35.84 17.92 66.56 43.52 94.72 74.24h46.080c46.080 0 92.16 30.72 92.16 81.92v38.4c38.4 28.16 64 74.24 64 125.44 0 40.96-15.36 76.8-40.96 104.96-5.12 184.32-192 325.12-412.16 325.12s-407.040-140.8-412.16-327.68c-25.6-28.16-40.96-64-40.96-104.96 0-81.92 64-148.48 145.92-153.6 30.72-71.68 84.48-130.56 151.040-166.4-120.32-35.84-222.72-115.2-294.4-220.16-10.24-15.36-7.68-35.84 7.68-46.080s35.84-7.68 46.080 7.68c92.16 133.12 235.52 220.16 396.8 220.16s304.64-84.48 396.8-220.16c5.12-10.24 15.36-15.36 28.16-15.36 5.12 0 12.8 2.56 17.92 5.12 15.36 12.8 17.92 33.28 7.68 48.64zM837.12 366.080c0-2.56-7.68-15.36-28.16-15.36v0c5.12 7.68 7.68 17.92 12.8 25.6 5.12 0 10.24 0 15.36 2.56v-12.8zM901.12 527.36c0-35.84-23.040-69.12-56.32-81.92v56.32c0 0 0 0 0 2.56s0 0 0 2.56v104.96c33.28-15.36 56.32-46.080 56.32-84.48zM263.68 814.080c61.44 48.64 151.040 81.92 248.32 81.92s186.88-30.72 248.32-81.92c48.64-38.4 79.36-87.040 92.16-138.24-12.8 2.56-25.6 5.12-40.96 5.12-5.12 0-10.24-2.56-15.36-5.12-56.32 97.28-163.84 161.28-284.16 161.28s-227.84-64-286.72-161.28c-5.12 2.56-10.24 5.12-15.36 5.12-15.36 0-28.16-2.56-40.96-5.12 12.8 51.2 46.080 99.84 94.72 138.24zM176.64 445.44c-33.28 12.8-56.32 43.52-56.32 81.92 0 35.84 23.040 69.12 56.32 81.92v-163.84zM243.2 501.76v0c0 151.040 120.32 271.36 268.8 271.36s268.8-120.32 268.8-268.8c0-58.88-17.92-110.080-48.64-153.6h-220.16c-17.92 0-33.28-15.36-33.28-33.28s15.36-33.28 33.28-33.28h153.6c-43.52-30.72-97.28-48.64-153.6-48.64-148.48 0-268.8 120.32-268.8 266.24z" />
<glyph unicode="&#xe917;" glyph-name="facebook" data-tags="facebook" d="M732.16 448h-143.36v-512h-212.48v512h-102.4v179.2h102.4v117.76c0 84.48 38.4 215.040 212.48 215.040h158.72v-174.080h-115.2c-17.92-2.56-43.52-12.8-43.52-51.2v-107.52h161.28l-17.92-179.2z" />
<glyph unicode="&#xe918;" glyph-name="tweeter" data-tags="tweeter" d="M995.84 849.92c-40.96-23.040-84.48-40.96-133.12-51.2-38.4 40.96-92.16 66.56-153.6 66.56-115.2 0-209.92-94.72-209.92-209.92 0-15.36 2.56-33.28 5.12-48.64-174.080 7.68-330.24 92.16-432.64 220.16-17.92-33.28-28.16-69.12-28.16-107.52 0-71.68 38.4-138.24 94.72-174.080-33.28 0-66.56 10.24-94.72 25.6 0 0 0-2.56 0-2.56 0-102.4 71.68-186.88 168.96-204.8-17.92-5.12-35.84-7.68-56.32-7.68-12.8 0-25.6 0-38.4 5.12 25.6-84.48 104.96-143.36 197.12-145.92-76.8-58.88-166.4-92.16-263.68-92.16-17.92 0-33.28 0-51.2 2.56 92.16-58.88 202.24-94.72 322.56-94.72 386.56 0 599.040 320 599.040 596.48 0 10.24 0 17.92 0 28.16 40.96 30.72 76.8 66.56 104.96 107.52-38.4-17.92-76.8-28.16-120.32-33.28 40.96 28.16 74.24 69.12 89.6 120.32z" />
<glyph unicode="&#xe919;" glyph-name="google" data-tags="google" d="M409.6 755.2c-28.16 97.28-71.68 125.44-140.8 125.44-7.68 0-15.36 0-23.040-2.56-28.16-10.24-51.2-35.84-64-71.68-12.8-38.4-15.36-76.8-2.56-120.32 20.48-79.36 76.8-135.68 133.12-135.68 7.68 0 15.36 0 23.040 2.56 61.44 15.36 99.84 112.64 74.24 202.24v0zM450.56-17.92c-69.12-33.28-140.8-35.84-168.96-35.84-5.12 0-7.68 0-10.24 0 0 0-2.56 0-5.12 0-46.080 0-266.24 10.24-266.24 209.92 0 197.12 240.64 212.48 314.88 212.48h2.56c-43.52 56.32-33.28 115.2-33.28 115.2-2.56 0-10.24 0-15.36 0-28.16 0-81.92 5.12-128 33.28-56.32 35.84-84.48 97.28-84.48 181.76 0 240.64 263.68 250.88 266.24 250.88h263.68v-5.12c0-28.16-53.76-35.84-89.6-40.96-12.8-2.56-35.84-5.12-43.52-7.68 66.56-35.84 76.8-92.16 76.8-174.080 0-94.72-35.84-145.92-76.8-179.2-25.6-20.48-43.52-38.4-43.52-61.44s25.6-46.080 56.32-71.68c48.64-43.52 117.76-104.96 117.76-204.8 0-104.96-46.080-179.2-133.12-222.72v0zM1024 448h-171.52v-171.52h-107.52v171.52h-171.52v107.52h171.52v174.080h107.52v-171.52h171.52v-110.080zM309.76 317.44c-5.12 0-12.8 0-17.92 0-51.2-2.56-97.28-23.040-130.56-53.76s-51.2-69.12-48.64-107.52c5.12-79.36 92.16-128 197.12-120.32 102.4 7.68 171.52 66.56 166.4 148.48-2.56 76.8-69.12 133.12-166.4 133.12v0z" />
<glyph unicode="&#xe91a;" glyph-name="linkedin" data-tags="linkedin" d="M770.56 634.88c-115.2 0-168.96-64-197.12-110.080v-2.56h-2.56c0 0 0 2.56 2.56 2.56v92.16h-220.16c2.56-61.44 0-660.48 0-660.48h220.16v371.2c0 20.48 2.56 38.4 7.68 53.76 15.36 40.96 51.2 79.36 112.64 79.36 79.36 0 110.080-61.44 110.080-148.48v-353.28h220.16v378.88c0 202.24-107.52 296.96-253.44 296.96zM12.8-40.96h220.16v660.48h-220.16v-660.48zM122.88 936.96c-74.24 0-122.88-48.64-122.88-112.64s48.64-115.2 120.32-115.2h2.56c76.8 0 125.44 51.2 125.44 115.2-2.56 64-48.64 112.64-125.44 112.64z" />
<glyph unicode="&#xe91b;" glyph-name="rss" data-tags="rss" d="M0 588.8v-186.88c256 0 465.92-209.92 465.92-465.92h186.88c0 358.4-294.4 652.8-652.8 652.8zM724.48 660.48c-194.56 192-450.56 299.52-724.48 299.52v-186.88c222.72 0 435.2-87.040 591.36-245.76 158.72-158.72 245.76-368.64 245.76-591.36h186.88c0 273.92-107.52 529.92-299.52 724.48zM122.88 184.32c-69.12 0-122.88-56.32-122.88-122.88 0-69.12 56.32-125.44 122.88-125.44s122.88 56.32 122.88 122.88-53.76 125.44-122.88 125.44z" />
<glyph unicode="&#xe91c;" glyph-name="prices" data-tags="prices" d="M545.28 478.72v294.4c71.68-7.68 133.12-43.52 158.72-94.72 7.68-15.36 28.16-23.040 43.52-15.36 17.92 7.68 23.040 28.16 15.36 43.52-35.84 74.24-120.32 125.44-220.16 133.12v87.040c2.56 17.92-12.8 33.28-30.72 33.28s-33.28-15.36-33.28-33.28v-89.6c-117.76-15.36-209.92-94.72-215.040-194.56-7.68-120.32 97.28-166.4 215.040-209.92v-312.32c-71.68 7.68-133.12 43.52-158.72 94.72-7.68 15.36-28.16 23.040-43.52 15.36-17.92-7.68-23.040-28.16-15.36-43.52 35.84-74.24 120.32-125.44 220.16-133.12v-89.6c0-17.92 15.36-33.28 33.28-33.28s33.28 15.36 33.28 33.28v89.6c117.76 15.36 209.92 94.72 215.040 192s-71.68 176.64-217.6 232.96zM478.72 504.32c-112.64 43.52-153.6 74.24-148.48 135.68 2.56 66.56 66.56 117.76 148.48 130.56v-266.24zM545.28 125.44v281.6c97.28-43.52 151.040-97.28 148.48-153.6-2.56-64-66.56-115.2-148.48-128z" />
<glyph unicode="&#xe91d;" glyph-name="growth" data-tags="growth" d="M990.72 460.8h-128c-17.92 0-33.28-15.36-33.28-33.28v-460.8c0-17.92 15.36-33.28 33.28-33.28h128c17.92 0 33.28 15.36 33.28 33.28v460.8c0 20.48-15.36 33.28-33.28 33.28zM960 0h-64v396.8h61.44v-396.8zM33.28 335.36c10.24 0 17.92 2.56 25.6 10.24l320 358.4 253.44-225.28c7.68-5.12 15.36-10.24 25.6-7.68 7.68 0 17.92 5.12 23.040 12.8l271.36 343.040-5.12-94.72c0-17.92 12.8-33.28 30.72-35.84 0 0 2.56 0 2.56 0 17.92 0 30.72 12.8 33.28 30.72l10.24 197.12c0 2.56 0 2.56 0 5.12 0 0 0 2.56 0 2.56 0 2.56-2.56 7.68-2.56 10.24 0 0 0 0 0 2.56-2.56 2.56-5.12 5.12-7.68 7.68 0 0 0 0 0 0s0 0 0 0 0 0 0 0c-2.56 2.56-7.68 5.12-10.24 5.12 0 0-2.56 0-2.56 0-2.56 0-7.68 0-10.24 0 0 0 0 0-2.56 0s-2.56 0-5.12 0l-189.44-58.88c-17.92-5.12-25.6-23.040-20.48-40.96s23.040-25.6 40.96-20.48l87.040 28.16-250.88-312.32-250.88 222.72c-12.8 12.8-33.28 10.24-46.080-2.56l-340.48-384c-12.8-12.8-10.24-33.28 2.56-46.080 2.56-5.12 10.24-7.68 17.92-7.68zM714.24 307.2h-128c-17.92 0-33.28-15.36-33.28-33.28v-307.2c0-17.92 15.36-33.28 33.28-33.28h128c17.92 0 33.28 15.36 33.28 33.28v307.2c0 20.48-15.36 33.28-33.28 33.28zM680.96 0h-61.44v243.2h61.44v-243.2zM437.76 460.8h-128c-17.92 0-33.28-15.36-33.28-33.28v-460.8c0-17.92 15.36-33.28 33.28-33.28h128c17.92 0 33.28 15.36 33.28 33.28v460.8c-2.56 20.48-15.36 33.28-33.28 33.28zM404.48 0h-61.44v396.8h61.44v-396.8zM158.72 153.6h-128c-15.36 0-30.72-12.8-30.72-30.72v-153.6c0-17.92 15.36-33.28 33.28-33.28h128c17.92 0 33.28 15.36 33.28 33.28v153.6c-2.56 17.92-15.36 30.72-35.84 30.72zM128 0h-64v89.6h64v-89.6z" />
<glyph unicode="&#xe91e;" glyph-name="macc" data-tags="macc" d="M990.72 2.56h-627.2c92.16 38.4 192 94.72 284.16 186.88 174.080 171.52 253.44 330.24 291.84 430.080l20.48-69.12c5.12-12.8 17.92-23.040 30.72-23.040 2.56 0 5.12 0 10.24 2.56 17.92 5.12 28.16 23.040 20.48 40.96l-53.76 179.2c0 0 0 0 0 0 0 2.56-2.56 5.12-2.56 5.12s0 2.56-2.56 2.56c0 0-2.56 2.56-2.56 2.56s0 2.56-2.56 2.56c0 0-2.56 2.56-2.56 2.56s-2.56 0-2.56 2.56c-2.56 0-2.56 2.56-5.12 2.56 0 0 0 0 0 0s-2.56 0-2.56 0c0 0-2.56 0-2.56 0s0 0 0 0-2.56 0-2.56 0-2.56 0-5.12 0c0 0-2.56 0-2.56 0-2.56 0-5.12 0-5.12-2.56 0 0 0 0 0 0-2.56 0-5.12-2.56-7.68-5.12l-145.92-115.2c-15.36-10.24-15.36-30.72-5.12-46.080s30.72-15.36 46.080-5.12l71.68 56.32c-33.28-92.16-107.52-248.32-279.040-417.28-204.8-202.24-450.56-230.4-537.6-232.96v924.16c-5.12 17.92-17.92 33.28-35.84 33.28s-33.28-15.36-33.28-33.28v-957.44c0 0 0-2.56 0-2.56s0-2.56 0-2.56c0 0 0-2.56 0-2.56s0-2.56 0-2.56c0 0 0-2.56 2.56-2.56 0 0 0-2.56 2.56-2.56 0 0 0-2.56 2.56-2.56 0 0 2.56-2.56 2.56-2.56s2.56-2.56 2.56-2.56c0 0 2.56-2.56 2.56-2.56s2.56 0 2.56-2.56c0 0 2.56 0 2.56-2.56 0 0 2.56 0 2.56 0s2.56 0 2.56 0c0 0 2.56 0 2.56 0s2.56 0 2.56 0 7.68 0 15.36 0c5.12 0 10.24 0 17.92 0h926.72c17.92 0 33.28 15.36 33.28 33.28s-15.36 30.72-33.28 30.72z" />
<glyph unicode="&#xe91f;" glyph-name="analytics" data-tags="analytics" d="M629.76 437.76c10.24 0 20.48 10.24 20.48 20.48v120.32c0 10.24-10.24 20.48-20.48 20.48s-20.48-10.24-20.48-20.48v-120.32c0-10.24 10.24-20.48 20.48-20.48zM701.44 437.76c10.24 0 20.48 10.24 20.48 20.48v192c0 10.24-10.24 20.48-20.48 20.48s-20.48-10.24-20.48-20.48v-192c0-10.24 10.24-20.48 20.48-20.48zM307.2 711.68c-66.56-10.24-120.32-61.44-130.56-128h130.56v128zM773.12 437.76c10.24 0 20.48 10.24 20.48 20.48v240.64c0 10.24-10.24 20.48-20.48 20.48s-20.48-10.24-20.48-20.48v-240.64c2.56-10.24 10.24-20.48 20.48-20.48zM847.36 622.080c-10.24 0-20.48-10.24-20.48-20.48v-143.36c0-10.24 10.24-20.48 20.48-20.48s20.48 10.24 20.48 20.48v143.36c0 12.8-10.24 20.48-20.48 20.48zM954.88 903.68h-885.76c-38.4 0-69.12-33.28-69.12-71.68v-614.4c0-38.4 30.72-69.12 69.12-69.12h409.6v-87.040h-197.12c-17.92 0-33.28-15.36-33.28-33.28s15.36-33.28 33.28-33.28h460.8c17.92 0 33.28 15.36 33.28 33.28s-15.36 33.28-33.28 33.28h-197.12v87.040h409.6c38.4 0 69.12 30.72 69.12 69.12v614.4c0 38.4-30.72 71.68-69.12 71.68zM960 263.68h-896v568.32c0 2.56 2.56 5.12 5.12 5.12h883.2c2.56 0 5.12-2.56 5.12-5.12v-568.32zM353.28 709.12c-10.24 0-20.48-10.24-20.48-20.48v-130.56h-130.56c-10.24 0-20.48-10.24-20.48-20.48 0-94.72 76.8-171.52 171.52-171.52s171.52 76.8 171.52 171.52c0 94.72-76.8 171.52-171.52 171.52zM353.28 404.48c-66.56 0-120.32 48.64-130.56 110.080h130.56c10.24 0 20.48 10.24 20.48 20.48v130.56c61.44-10.24 110.080-64 110.080-130.56 0-71.68-58.88-130.56-130.56-130.56zM847.36 419.84h-215.040c-10.24 0-20.48-10.24-20.48-20.48s10.24-20.48 20.48-20.48h215.040c10.24 0 20.48 10.24 20.48 20.48s-10.24 20.48-20.48 20.48z" />
<glyph unicode="&#xe920;" glyph-name="database" data-tags="database" d="M512 960c-220.16 0-453.12-69.12-453.12-197.12v-632.32c0-128 232.96-197.12 453.12-197.12s453.12 69.12 453.12 197.12v632.32c0 128-232.96 197.12-453.12 197.12zM898.56 133.12c0-53.76-145.92-130.56-386.56-130.56s-386.56 76.8-386.56 130.56v104.96c84.48-58.88 238.080-92.16 386.56-92.16s302.080 30.72 386.56 92.16v-104.96zM898.56 343.040c0-53.76-145.92-130.56-386.56-130.56s-386.56 76.8-386.56 130.56v104.96c84.48-58.88 238.080-92.16 386.56-92.16s302.080 30.72 386.56 92.16v-104.96zM898.56 552.96c0-53.76-145.92-130.56-386.56-130.56s-386.56 76.8-386.56 130.56v104.96c84.48-58.88 238.080-92.16 386.56-92.16s302.080 30.72 386.56 92.16v-104.96zM512 632.32c-240.64 0-386.56 76.8-386.56 130.56s145.92 133.12 386.56 133.12 386.56-76.8 386.56-130.56-145.92-133.12-386.56-133.12z" />
<glyph unicode="&#xe921;" glyph-name="total_energy" data-tags="total_energy" d="M570.88 5.12c-20.48-2.56-38.4-2.56-58.88-2.56-125.44 0-245.76 53.76-330.24 145.92l-23.040 23.040-48.64-43.52 23.040-23.040c97.28-107.52 235.52-168.96 378.88-168.96 23.040 0 46.080 2.56 66.56 5.12l33.28 5.12-7.68 64-33.28-5.12zM64 448c0 104.96 35.84 207.36 104.96 286.72l20.48 25.6-51.2 40.96-20.48-25.6c-74.24-92.16-117.76-207.36-117.76-327.68 0-46.080 5.12-89.6 17.92-133.12l7.68-30.72 64 17.92-7.68 30.72c-12.8 35.84-17.92 76.8-17.92 115.2zM340.48 860.16c53.76 23.040 112.64 35.84 171.52 35.84v0c84.48 0 168.96-23.040 240.64-69.12l28.16-17.92 35.84 53.76-28.16 17.92c-84.48 51.2-179.2 79.36-276.48 79.36v0c-69.12 0-133.12-12.8-197.12-38.4l-30.72-12.8 25.6-61.44 30.72 12.8zM680.96 547.84h-122.88l43.52 202.24c2.56 10.24-2.56 23.040-15.36 28.16-10.24 5.12-23.040 0-28.16-10.24l-235.52-381.44c-5.12-7.68-5.12-17.92 0-23.040 5.12-7.68 12.8-12.8 20.48-12.8h122.88l-43.52-202.24c-2.56-10.24 2.56-23.040 15.36-28.16 2.56 0 5.12-2.56 7.68-2.56 7.68 0 15.36 5.12 20.48 10.24l235.52 381.44c5.12 7.68 5.12 17.92 0 23.040s-12.8 15.36-20.48 15.36zM499.2 273.92l20.48 94.72c2.56 7.68 0 15.36-5.12 20.48s-12.8 7.68-17.92 7.68h-110.080l138.24 225.28-20.48-94.72c-2.56-7.68 0-15.36 5.12-20.48s10.24-7.68 17.92-7.68h110.080l-138.24-225.28zM954.88 704l-15.36 28.16-56.32-33.28 15.36-28.16c38.4-66.56 58.88-145.92 61.44-225.28 0-145.92-71.68-281.6-189.44-366.080l-28.16-15.36 38.4-53.76 25.6 17.92c135.68 97.28 217.6 253.44 217.6 419.84 0 89.6-23.040 179.2-69.12 256z" />
<glyph unicode="&#xe922;" glyph-name="crude_oil" data-tags="crude_oil" d="M790.067-17.331c0.179 1.69 0.512 3.405 0.512 5.12 0 1.536 0 3.866-0.41 7.091l-7.91-1.050c-0.051 0.026-0.051 0.051-0.077 0.102l7.987 1.050-90.803 677.658c-0.717 4.301-1.92 8.32-3.354 12.186 1.306 10.317-1.562 21.018-9.702 28.723-8.73 8.243-20.71 10.317-31.59 7.45-4.019 0.922-8.166 1.587-12.544 1.715h-260.378c-4.378-0.128-8.525-0.794-12.57-1.715-10.88 2.867-22.835 0.819-31.642-7.45-8.115-7.68-10.982-18.355-9.702-28.672-1.459-3.866-2.662-7.91-3.379-12.237l-90.675-677.632c-0.512-2.56-0.461-5.35-0.512-7.194 0-1.766 0.333-3.558 0.538-5.325-4.506-10.778-3.738-23.424 3.891-33.357 6.605-8.627 16.589-13.133 26.675-13.133 3.046 0 6.067 0.64 9.037 1.485 3.814-0.896 7.706-1.485 11.648-1.485h453.427c4.045 0 8.013 0.563 11.955 1.485 2.995-0.845 6.016-1.485 9.088-1.485 10.086 0 20.019 4.506 26.65 13.133 7.706 9.958 8.422 22.707 3.84 33.536zM665.984 414.618l-107.725 114.125 80.947 85.76 26.778-199.885zM547.866 655.36h37.248l-37.504-39.731 0.256 39.731zM546.432 443.213l116.787-123.699-118.246-91.162 1.459 214.861zM384.691 614.554l80.998-85.786-107.75-114.176 26.752 199.962zM336.307 253.312l120.499-92.851-148.224-114.227 27.725 207.078zM476.058 3.328h-112.819l113.408 87.373-0.589-87.373zM477.619 229.427l-116.864 90.086 118.374 125.414-1.51-215.501zM480.282 611.379l-41.472 43.981h41.805l-0.333-43.981zM543.411 3.328l0.589 89.933 116.736-89.933h-117.325zM567.142 160.461l120.422 92.8 27.725-206.976-148.147 114.176zM520.218 756.070c7.859 52.48 6.554 115.942-27.085 152.294-44.774 48.742-113.792 44.493-134.502 23.142-15.437-16-19.866-83.814 13.645-120.192 33.536-36.378 86.374-38.528 147.942-55.245zM666.138 878.515c20.71 27.827 8.166 69.683-5.811 77.338-18.688 10.291-72.090 2.483-99.738-34.816-20.736-27.827-13.082-67.814 0.051-99.456 44.672 19.763 84.736 29.107 105.498 56.934z" />
<glyph unicode="&#xe923;" glyph-name="oil_products" data-tags="oil_products" d="M1003.187 661.76l-0.742 2.355-31.411 64.307c-1.126 2.893-3.533 8.602-7.117 14.413-5.811 9.856-12.186 15.565-20.608 21.171-7.27 4.173-14.438 6.426-20.71 7.501l-132.582 57.472v73.626c-0.102 31.795-25.574 57.293-57.395 57.395h-525.645c-31.795-0.102-57.293-25.6-57.395-57.395v-901.376h-101.632c-18.022 0-32.614-14.566-32.614-32.589s14.592-32.64 32.614-32.64h843.725c18.022 0 32.589 14.592 32.589 32.614s-14.566 32.589-32.589 32.589h-101.658v550.81h61.44v-408.474c-0.077-23.68 7.040-45.696 21.171-62.31 13.901-16.614 35.149-26.778 57.114-26.829 22.579 0.051 43.776 10.189 57.702 26.829 14.080 16.589 21.222 38.63 21.171 62.31v500.582l-5.427 17.638zM724.864 1.229h-510.106v893.619h510.131v-893.619zM943.462 143.539c-1.587-22.246-8.346-23.219-13.67-23.936-4.813 0.691-11.571 1.664-13.158 23.936v412.979c-0.256 14.822-3.174 27.085-10.419 38.938-4.557 9.139-18.586 20.813-32.026 21.581l-1.715 0.205h-82.432v140.672l116.326-50.432 2.79-0.154c0.538-0.973 0.768-1.664 1.152-2.56 0.256-0.691 0.512-1.434 1.28-3.354 0.794-1.126 0.998-2.842 2.918-5.786l27.187-55.578 1.766-5.837v-490.675zM311.27 453.734h317.082c25.882 0.154 46.49 20.762 46.643 46.669v278.758c-0.154 25.882-20.787 46.515-46.643 46.618h-317.082c-25.882-0.102-46.515-20.736-46.669-46.618v-278.758c0.154-25.907 20.762-46.515 46.669-46.669zM329.805 760.55h279.987v-241.613h-279.987v241.613z" />
<glyph unicode="&#xe924;" glyph-name="coal_lignite" data-tags="coal_lignite" d="M914.432 127.795l108.416 433.818 0.205 0.998c0.41 2.227 0.947 5.376 0.947 9.651 0.077 11.392-4.634 23.578-13.389 31.872-8.678 8.499-20.608 12.646-31.616 12.544h-48.819c-1.126 25.882-3.814 56.781-10.47 86.093-5.043 21.734-11.93 42.675-24.448 61.235-11.827 18.176-34.406 35.379-61.952 35.046-1.92-2.406-30.694 13.517-61.21 38.272-31.642 23.654-69.376 52.838-116.352 65.28-5.965 1.536-11.904 2.125-17.613 2.125-36.787-1.178-67.098-19.84-98.381-35.2-29.722-16.154-60.493-29.030-68.045-27.827-140.493 2.227-196.147-56.294-261.862-124.416-16.41-16.742-40.806-29.594-65.331-46.72-16.896-11.392-35.891-29.261-45.312-53.888h-54.093c-10.957 0.051-22.886-3.994-31.642-12.442-8.781-8.294-13.619-20.531-13.466-31.974 0-4.096 0.486-8.013 1.485-11.725l108.186-432.717c7.475-24.55 25.6-38.81 51.277-40.038h52.762c14.592-55.398 64.589-96.461 124.621-96.512 60.032 0 110.003 41.062 124.595 96.512h98.202c14.592-55.45 64.589-96.512 124.621-96.512 60.058 0.051 110.054 41.088 124.595 96.512h52.813c25.626 1.254 43.776 15.488 51.226 40.013zM182.605 617.114c18.432 13.414 47.514 27.878 73.702 53.837 73.37 71.347 91.213 102.912 215.398 105.139 36.736 1.178 66.893 19.84 98.176 35.2 29.722 16.154 60.544 29.030 68.25 27.827 0.896 0 1.126-0.077 1.126-0.051 29.44-7.296 62.31-30.413 93.286-54.067 32.128-22.682 57.984-49.126 100.736-51.558 1.792-0.358 1.997 0.845 7.885-6.605 13.67-17.254 21.222-69.478 23.501-110.157h-682.675c0.205 0.128 0.41 0.282 0.614 0.435zM392.627 87.757c-11.162-18.406-31.181-30.797-54.298-30.899-23.142 0.102-43.162 12.493-54.323 30.899-5.837 9.6-9.37 20.762-9.395 32.794 0 12.109 3.584 23.245 9.421 32.845 11.187 18.406 31.181 30.797 54.298 30.899 23.117-0.102 43.11-12.493 54.272-30.899 5.837-9.6 9.395-20.762 9.395-32.845 0-12.058-3.558-23.194-9.37-32.794zM740.045 87.757c-11.162-18.406-31.181-30.797-54.298-30.899-23.117 0.102-43.162 12.493-54.298 30.899-5.837 9.6-9.395 20.762-9.421 32.794 0.026 12.109 3.635 23.245 9.421 32.845 11.187 18.406 31.206 30.797 54.298 30.899 23.091-0.102 43.136-12.493 54.298-30.899 5.811-9.6 9.37-20.762 9.395-32.845-0.026-12.058-3.558-23.194-9.395-32.794zM853.171 153.395h-42.854c-14.592 55.45-64.538 96.461-124.57 96.512-60.032-0.051-109.952-41.062-124.57-96.512h-98.278c-14.618 55.45-64.563 96.461-124.57 96.512-60.032-0.051-109.978-41.062-124.595-96.512h-42.829l-99.405 397.619h21.658v-0.026l859.392 0.026-99.379-397.619z" />
<glyph unicode="&#xe925;" glyph-name="natural_gas" data-tags="natural_gas" d="M816.87 434.355c-0.128 0.154-0.333 0.179-0.486 0.307-2.918 2.79-6.349 5.043-10.138 6.579-0.307 0.102-0.589 0.154-0.87 0.282-3.558 1.306-7.322 2.125-11.29 2.125-0.077 0-0.154-0.026-0.23-0.026-0.179 0-0.384-0.051-0.563-0.051-4.096-0.077-8.013-0.896-11.622-2.381-0.077-0.026-0.154-0.051-0.256-0.077-3.994-1.69-7.578-4.173-10.573-7.194 0-0.026-0.026-0.026-0.051-0.051-0.051-0.026-0.051-0.077-0.102-0.128-2.893-2.995-5.248-6.579-6.835-10.522-0.102-0.23-0.128-0.461-0.23-0.666-1.331-3.584-2.176-7.424-2.176-11.469-0.486-17.818-6.093-26.675-17.613-35.661-11.648-8.678-31.283-14.643-54.042-14.592-38.733 0.051-69.12 30.643-69.171 67.098 0 15.462 5.299 29.44 14.336 40.909l3.814 6.118c23.859 49.408 33.997 97.536 33.946 142.49-2.893 210.381-207.616 334.874-209.203 337.459-12.902 8.192-29.798 6.374-40.55-4.454-10.752-10.752-12.646-27.622-4.48-40.525h-0.026c1.818-3.251 15.616-29.158 15.616-76.57-0.077-75.699-35.021-210.662-226.918-398.976-53.76-52.634-87.296-125.875-87.296-206.566 0.154-161.587 133.606-291.456 297.088-291.763 0 0 0 0 0.026 0v0c0 0 0.026 0 0.026 0 2.483 0 4.864 0.333 7.194 0.87 0.64 0.128 1.28 0.384 1.946 0.589 1.638 0.486 3.251 1.024 4.787 1.741 0.819 0.41 1.562 0.819 2.33 1.28 1.357 0.794 2.611 1.613 3.84 2.611 0.691 0.538 1.408 1.101 2.074 1.715 1.536 1.408 2.893 2.97 4.147 4.659 0.179 0.256 0.435 0.435 0.589 0.666 0.026 0.026 0.026 0.077 0.051 0.128 2.381 3.507 4.147 7.501 5.018 11.776 0 0.026 0 0.077 0 0.102 0.435 2.074 0.64 4.224 0.64 6.451 0 1.869-0.23 3.712-0.538 5.478-0.026 0.256-0.026 0.461-0.051 0.666-0.742 3.917-2.278 7.552-4.301 10.854-0.154 0.256-0.256 0.538-0.435 0.768-2.304 3.507-5.248 6.528-8.678 8.96-0.051 0.026-0.077 0.077-0.154 0.128v0.051c-41.984 29.235-56.013 65.818-56.422 101.914-0.154 29.261 10.829 57.549 25.293 74.445 24.73 30.106 31.565 66.048 33.075 97.562 0.717-0.691 1.434-1.434 2.125-2.125 15.667-15.667 31.155-32.563 41.882-46.899 5.325-7.091 9.446-13.568 11.725-18.227 1.126-2.278 1.818-4.045 2.074-4.992l0.102 0.026c0.23-53.914 37.325-103.834 93.619-104.858 31.104 0.538 56.371 16.102 72.806 38.989 4.019-8.858 6.63-18.611 6.272-28.595-0.179-23.987-12.621-60.006-79.744-107.418-0.102-0.102-0.154-0.256-0.307-0.333-3.277-2.381-6.118-5.299-8.32-8.73-0.256-0.384-0.41-0.768-0.589-1.152-1.894-3.174-3.328-6.682-4.045-10.445-0.077-0.435-0.077-0.845-0.128-1.306-0.256-1.587-0.512-3.149-0.512-4.813 0-2.278 0.256-4.48 0.666-6.63 0.051-0.205 0.154-0.41 0.205-0.563 0.922-4.096 2.611-7.936 4.89-11.238 0.026-0.077 0.026-0.154 0.077-0.23 0.102-0.154 0.282-0.205 0.358-0.358 2.432-3.302 5.376-6.144 8.806-8.346 0.282-0.179 0.538-0.282 0.768-0.435 3.328-2.022 6.963-3.507 10.957-4.224 0.205-0.026 0.384-0.026 0.589-0.026 1.766-0.282 3.507-0.538 5.325-0.538v0.051c163.558 0.307 297.062 130.125 297.139 291.763 0.051 80.666-33.536 153.907-87.27 206.541zM709.197 24.704c16.563 26.598 24.115 52.992 24.013 78.080-1.766 77.875-61.875 118.502-63.923 121.011-9.882 7.322-23.066 8.397-34.048 2.867-10.931-5.555-17.818-16.794-17.818-29.107 0-12.646-4.454-23.526-10.291-30.387-5.965-6.938-12.058-9.6-18.15-9.651-6.093 0.051-12.237 2.714-18.202 9.651-5.837 6.861-10.266 17.715-10.214 30.387-1.306 26.624-13.619 42.854-26.931 61.952-41.011 54.349-114.662 114.867-115.482 115.814-10.829 8.986-26.394 10.010-38.246 2.534-11.904-7.578-17.69-21.99-14.182-35.686 0 0 1.587-6.093 3.354-17.203 1.766-11.085 3.558-26.419 3.507-42.547 0.282-27.085-5.786-54.656-18.099-68.531-25.446-30.413-40.525-71.859-40.678-116.454-0.179-26.419 5.837-54.195 18.662-80.435-86.349 33.152-147.226 115.251-147.43 210.765 0 62.438 25.805 118.835 67.738 160.026 200.013 195.712 246.605 348.339 246.477 445.542 0 2.688-0.026 5.325-0.077 7.91 50.867-50.893 109.235-130.944 108.314-223.846-0.051-34.381-7.347-71.194-26.086-111.206-16.307-21.786-26.061-49.050-26.061-78.31 0.102-73.574 60.672-132.122 134.374-132.25 33.382 0.026 65.92 7.962 92.339 26.957 8.678 6.118 16.384 13.85 22.963 22.605 21.35-34.304 33.843-74.317 33.843-117.376-0.051-88.858-52.838-166.067-129.664-203.11z" />
<glyph unicode="&#xe926;" glyph-name="power" data-tags="power" d="M512.154 956.006c-156.467 0-296.397-70.758-390.17-180.634-75.776-89.318-121.984-205.389-121.984-331.93 0-18.022 14.618-32.589 32.614-32.589 18.022 0 32.589 14.566 32.589 32.589 0 110.566 40.218 211.584 106.419 289.664 82.125 96.051 203.955 157.67 340.506 157.67 246.835-0.461 446.208-200.397 446.618-447.36 0.102-207.77-142.029-382.72-333.875-432.358-9.805-2.611-30.106-5.965-52.224-5.914-28.544-0.154-59.776 5.786-80.614 20.403-20.403 14.848-35.635 35.61-36.454 84.403 0 0.102 0.026 0.205 0.026 0.307 2.125 32.23 8.448 49.050 42.675 57.421 19.635 3.584 36.864 16.64 45.005 31.872 8.448 15.104 10.163 30.054 10.266 43.162-0.077 6.272-0.589 12.237-1.331 17.869 117.069 20.813 203.981 129.075 204.186 256.794 0 15.488-1.485 30.31-3.738 44.339-2.56 15.846-16.128 27.443-32.154 27.443h-63.437v131.814c0 17.971-14.566 32.563-32.563 32.563-18.048 0-32.589-14.592-32.589-32.563v-131.763h-159.437v131.763c0 17.971-14.592 32.589-32.614 32.589s-32.614-14.618-32.614-32.589v-131.763h-63.078c-16.026 0-29.645-11.597-32.154-27.443-2.227-13.901-3.789-28.749-3.789-44.339 0.23-132.992 94.208-245.299 218.445-259.226 0.973-5.274 1.715-10.701 1.69-15.462 0.077-5.99-1.178-10.086-1.638-10.778-0.205-0.102-0.614-0.256-1.536-0.435-67.354-12.109-96.973-72.371-94.797-121.242-0.742-64.794 26.445-112.845 64.666-138.419 37.811-25.728 81.357-31.693 117.581-31.846 28.442 0.051 52.582 3.866 68.531 7.962 220.262 56.934 382.72 257.357 382.822 495.462 0 282.88-228.89 512.512-511.846 512.563zM333.389 517.402c0 2.202 0.051 4.403 0.128 6.605h66.022c0.102 0 0.23-0.026 0.358-0.026s0.23 0.026 0.358 0.026h224.154c0.051 0 0.077 0 0.128 0s0.077 0 0.128 0h66.458c0.051-2.202 0.077-4.403 0.077-6.605-0.154-109.568-82.202-195.328-179.098-195.482-96.563 0.154-178.56 85.862-178.714 195.482z" />
<glyph unicode="&#xe927;" glyph-name="plant" data-tags="plant" d="M135.68 872.96h125.44c17.92 0 33.28 15.36 33.28 33.28s-15.36 33.28-33.28 33.28h-125.44c-20.48-2.56-33.28-15.36-33.28-33.28s12.8-33.28 33.28-33.28zM135.68 752.64h125.44c17.92 0 33.28 15.36 33.28 33.28s-15.36 33.28-33.28 33.28h-125.44c-20.48-2.56-33.28-15.36-33.28-33.28s12.8-33.28 33.28-33.28zM409.6 427.52c5.12 0 10.24 0 15.36 2.56l266.24 143.36 294.4-66.56c2.56 0 5.12 0 7.68 0 15.36 0 28.16 10.24 30.72 25.6 5.12 17.92-7.68 35.84-25.6 38.4l-281.6 64-38.4 296.96c-2.56 17.92-17.92 30.72-35.84 28.16s-30.72-17.92-28.16-35.84l35.84-296.96-258.56-138.24c-15.36-7.68-23.040-28.16-12.8-43.52 7.68-12.8 17.92-17.92 30.72-17.92zM990.72 0h-271.36v486.4c0 17.92-15.36 33.28-33.28 33.28s-33.28-15.36-33.28-33.28v-486.4h-330.24l-28.16 532.48c0 2.56 0 5.12 0 7.68 0 0 0 2.56 0 2.56 0 17.92-15.36 33.28-33.28 33.28h-120.32c-10.24 0-17.92-2.56-23.040-10.24-10.24-5.12-15.36-17.92-15.36-30.72l-30.72-535.040h-38.4c-17.92 0-33.28-12.8-33.28-30.72s15.36-33.28 33.28-33.28h960c17.92 0 33.28 15.36 33.28 33.28-2.56 17.92-17.92 30.72-35.84 30.72zM138.24 0l28.16 512h64l28.16-512h-120.32zM135.68 632.32h125.44c17.92 0 33.28 15.36 33.28 33.28s-15.36 33.28-33.28 33.28h-125.44c-17.92 0-33.28-15.36-33.28-33.28s12.8-33.28 33.28-33.28z" />
<glyph unicode="&#xe928;" glyph-name="renewables" data-tags="renewables" d="M694.298 789.99l43.059-11.187c2.765-0.717 5.53-1.050 8.269-1.050 1.075 0 2.048 0.41 3.098 0.512 0.307-4.787 0.922-9.472 1.894-14.080-3.686-0.691-7.347-1.741-10.752-3.763l-38.221-22.707c-15.514-9.242-20.659-29.286-11.418-44.8 6.118-10.266 16.998-15.974 28.134-15.974 5.709 0 11.443 1.485 16.691 4.608l38.221 22.707c3.302 1.971 5.862 4.608 8.192 7.45 2.995-2.662 6.042-5.248 9.421-7.501l-13.952-54.118c-4.506-17.51 6.016-35.277 23.475-39.782 2.714-0.691 5.478-1.050 8.166-1.050 14.541 0 27.802 9.779 31.59 24.525l14.029 54.4c3.174 0.307 6.349 0.563 9.472 1.178l5.709-9.677c0.154-0.23 0.128-0.512 0.256-0.717l18.509-31.053 4.070-6.912c1.562-2.611 3.405-4.89 5.478-6.912 1.69-1.664 3.661-2.97 5.683-4.198 0.358-0.23 0.64-0.563 1.050-0.794 4.864-2.714 10.394-4.173 15.974-4.173 5.709 0 11.469 1.485 16.717 4.582 3.277 1.971 5.811 4.608 8.115 7.398 0.41 0.461 1.050 0.768 1.408 1.254 1.971 2.688 3.174 5.811 4.25 8.934 0.307 0.845 0.896 1.536 1.126 2.406 0.794 3.149 0.742 6.426 0.589 9.677-0.051 0.947 0.282 1.869 0.154 2.816-0.435 3.123-1.792 6.093-3.149 9.062-0.486 1.050-0.512 2.176-1.101 3.2l-0.026 0.051c-0.026 0-0.026 0.026-0.026 0.026l-0.845 1.434-27.699 46.925c2.458 2.944 4.864 5.914 6.938 9.19 3.021-2.048 6.349-3.738 10.086-4.71l43.213-11.187c2.739-0.717 5.478-1.050 8.192-1.050 14.541 0 27.802 9.754 31.616 24.499 4.506 17.434-5.99 35.251-23.424 39.834l-43.238 11.187c-3.814 0.998-7.629 1.126-11.341 0.768-0.307 4.634-0.896 9.216-1.869 13.696 3.866 0.666 7.731 1.766 11.264 3.917l37.734 22.528c15.514 9.242 20.582 29.312 11.315 44.8s-29.338 20.557-44.826 11.29l-37.76-22.528c-3.379-2.022-5.99-4.736-8.346-7.603-3.098 2.739-6.246 5.427-9.728 7.782l2.33 8.986c0.307 0.87 0.845 1.562 1.075 2.483l10.624 42.854c0.41 1.638 0.538 3.277 0.691 4.915 0.051 0.486 0.179 0.947 0.205 1.408 0.077 1.638-0.077 3.2-0.23 4.813-0.077 0.538-0.026 1.101-0.102 1.613-0.23 1.434-0.64 2.79-1.050 4.173-0.205 0.666-0.282 1.357-0.538 1.997-0.435 1.178-1.024 2.278-1.587 3.379-0.41 0.768-0.666 1.587-1.101 2.304-0.563 0.973-1.306 1.818-1.971 2.688-0.563 0.794-1.101 1.638-1.741 2.381-0.742 0.845-1.638 1.536-2.483 2.304-0.717 0.64-1.382 1.382-2.15 1.971-0.998 0.768-2.176 1.382-3.302 2.048-0.691 0.435-1.408 0.922-2.15 1.306-1.434 0.666-2.944 1.152-4.506 1.638-0.538 0.154-1.024 0.461-1.613 0.589-0.026 0-0.026 0-0.051 0-0.102 0.026-0.179 0.051-0.256 0.077-1.459 0.358-2.893 0.461-4.378 0.614-0.614 0.128-1.229 0.307-1.869 0.358-1.434 0.051-2.842-0.077-4.25-0.205-0.717-0.051-1.459-0.026-2.176-0.128-1.408-0.205-2.714-0.64-4.070-1.024-0.666-0.205-1.382-0.282-2.022-0.538-1.382-0.512-2.637-1.152-3.866-1.818-0.589-0.307-1.229-0.538-1.818-0.87-1.229-0.742-2.33-1.638-3.482-2.56-0.512-0.41-1.101-0.717-1.562-1.152-1.075-0.973-2.022-2.074-2.97-3.174-0.41-0.512-0.922-0.922-1.331-1.459-0.794-1.075-1.434-2.253-2.125-3.43-0.41-0.691-0.87-1.331-1.229-2.074-0.512-1.024-0.819-2.125-1.203-3.226-0.358-0.947-0.794-1.843-1.050-2.867l-14.029-54.4c-3.123-0.282-6.195-0.563-9.242-1.152l-28.544 48.384c-9.165 15.539-29.21 20.736-44.749 11.546-15.539-9.139-20.71-29.21-11.52-44.749l28.57-48.461c-2.509-2.97-4.89-5.965-7.040-9.242-2.995 2.048-6.298 3.712-10.035 4.685l-43.11 11.213c-17.459 4.557-35.302-5.939-39.808-23.398-4.557-17.536 5.914-35.328 23.373-39.91zM913.459 766.976c0 0 0-0.026 0-0.051l-5.658 1.485 5.658-1.434zM988.314 1.357v0.051h-180.326v188.314l35.891 17.92c16.128 8.064 22.656 27.674 14.592 43.827-8.038 16.128-27.648 22.707-43.802 14.618l-267.034-133.581c-16.154-8.038-22.682-27.648-14.592-43.776 5.734-11.443 17.254-18.099 29.261-18.099 4.89 0 9.882 1.101 14.566 3.43l165.786 82.944v-155.622h-271.898v484.352c0 18.099-14.643 32.691-32.666 32.691-18.074 0-32.691-14.592-32.691-32.691v-484.352h-91.878c-7.834 0.102-12.493 3.2-17.766 8.55-2.432 2.611-4.429 5.453-5.606 7.45-0.589 0.973-0.998 1.766-1.203 2.176v-0.026c-6.17 14.003-18.074 32.717-44.851 34.048-26.752-1.254-38.938-20.096-45.030-34.381-0.922-1.792-4.224-7.27-8.525-11.162-4.838-4.224-8.909-6.579-15.949-6.682-7.834 0.102-12.518 3.2-17.818 8.55-2.381 2.611-4.352 5.453-5.555 7.45-0.589 0.973-0.998 1.766-1.178 2.099h-0.077c-6.144 14.106-18.15 32.768-44.877 34.022-26.701-1.229-38.835-19.968-44.979-34.15h0.051c-0.794-1.638-4.122-7.322-8.602-11.29-4.838-4.275-8.858-6.579-15.898-6.682-18.048 0-32.666-14.618-32.666-32.691 0-18.048 14.618-32.666 32.666-32.666 30.515-0.102 53.146 15.693 65.536 29.261 1.434 1.536 2.714 3.021 3.942 4.506 1.229-1.485 2.534-2.97 3.917-4.506 12.442-13.542 35.021-29.338 65.536-29.261 30.515-0.102 53.146 15.693 65.587 29.261 1.408 1.51 2.688 2.995 3.917 4.48 1.203-1.485 2.509-2.97 3.891-4.48 12.365-13.491 34.867-29.261 65.229-29.261h124.621c0.102 0 0.179-0.026 0.256-0.026s0.154 0.026 0.23 0.026h550.016c18.048 0 32.691 14.669 32.691 32.666 0 18.048-14.643 32.691-32.717 32.691zM973.696 345.626l-74.88-37.504c-16.154-8.064-22.707-27.674-14.618-43.827 5.734-11.443 17.306-18.074 29.286-18.074 4.915 0 9.907 1.152 14.592 3.482l74.906 37.478c16.077 8.090 22.682 27.699 14.592 43.827-8.064 16.179-27.75 22.682-43.878 14.618zM79.846 99.251c3.072 0 6.195 0.461 9.318 1.382l37.888 11.213c6.323-5.965 13.594-10.88 21.504-14.771l-6.016-30.285c-3.558-17.69 7.987-34.893 25.651-38.4 2.176-0.461 4.326-0.64 6.451-0.64 15.283 0 28.877 10.778 31.949 26.266l7.782 38.886c6.938 2.355 13.542 5.274 19.584 9.216l22.707-20.582c6.246-5.632 14.106-8.422 21.914-8.422 8.909 0 17.766 3.61 24.192 10.752 12.134 13.363 11.162 33.997-2.278 46.131l-29.133 26.419c1.306 5.914 2.048 12.058 2.048 18.406 0 0.896-0.256 1.766-0.282 2.662l29.491 8.781c17.331 5.146 27.162 23.347 21.99 40.678-5.12 17.28-23.322 27.162-40.653 21.939l-37.811-11.213c-6.323 6.042-13.645 10.982-21.606 14.874l5.99 30.234c3.533 17.69-7.962 34.918-25.651 38.426-17.715 3.533-34.918-7.962-38.426-25.677l-7.731-38.835c-6.938-2.381-13.568-5.325-19.584-9.242l-22.682 20.582c-13.338 12.109-34.022 11.059-46.157-2.33-12.134-13.338-11.085-33.997 2.278-46.157l29.21-26.419c-1.28-5.914-2.022-12.032-2.022-18.304 0-0.973 0.256-1.843 0.282-2.79l-29.466-8.755c-17.331-5.146-27.162-23.296-22.042-40.653 4.198-14.182 17.203-23.373 31.309-23.373zM186.598 196.301c11.725 0 21.427-9.702 21.427-21.478 0-11.981-9.651-21.53-21.427-21.53-11.878 0-21.478 9.549-21.478 21.53 0.051 11.827 9.651 21.478 21.478 21.478zM150.298 424.397c5.069 0 10.24 1.178 15.078 3.712l272.691 142.285 300.57-65.818c2.355-0.512 4.71-0.742 6.989-0.742 15.078 0 28.57 10.419 31.898 25.677 3.84 17.613-7.296 35.021-24.909 38.886l-289.587 63.462-36.864 296.55c-2.227 17.894-18.509 30.618-36.454 28.365-17.92-2.176-30.592-18.534-28.39-36.454l36.966-296.986-263.168-137.318c-16-8.346-22.17-28.058-13.875-44.058 5.888-11.162 17.254-17.562 29.056-17.562z" />
<glyph unicode="&#xe929;" glyph-name="emissions" data-tags="emissions" d="M289.28 663.040c-35.84 0-64-15.36-81.92-46.080-20.48-30.72-30.72-74.24-30.72-130.56s10.24-99.84 28.16-130.56c20.48-30.72 46.080-46.080 81.92-46.080 23.040 0 43.52 5.12 58.88 17.92v56.32c-17.92-12.8-35.84-17.92-53.76-17.92-38.4 0-58.88 40.96-58.88 120.32 0 38.4 5.12 69.12 15.36 89.6s23.040 33.28 40.96 33.28c7.68 0 17.92-2.56 23.040-5.12 7.68-5.12 15.36-7.68 20.48-12.8l20.48 51.2c-12.8 7.68-23.040 15.36-33.28 17.92-7.68 2.56-17.92 2.56-30.72 2.56zM762.88 263.68c28.16 38.4 46.080 64 53.76 74.24s12.8 20.48 17.92 30.72c5.12 10.24 7.68 20.48 10.24 30.72s2.56 20.48 2.56 33.28c0 25.6-5.12 43.52-17.92 58.88-12.8 12.8-30.72 20.48-51.2 20.48-12.8 0-25.6-2.56-35.84-7.68s-23.040-17.92-35.84-33.28l28.16-33.28c7.68 10.24 15.36 15.36 20.48 20.48 5.12 2.56 12.8 5.12 17.92 5.12 7.68 0 12.8-2.56 17.92-7.68s7.68-15.36 7.68-25.6c0-10.24 0-17.92-2.56-28.16s-5.12-17.92-10.24-28.16c-5.12-10.24-15.36-25.6-28.16-46.080l-48.64-74.24v-40.96h145.92v48.64l-92.16 2.56zM808.96 619.52c-51.2 122.88-163.84 204.8-291.84 204.8-56.32 0-112.64-15.36-161.28-48.64-25.6 7.68-48.64 12.8-74.24 12.8-156.16 0-281.6-135.68-281.6-302.080s125.44-302.080 281.6-302.080c23.040 0 46.080 2.56 69.12 10.24 69.12-43.52 151.040-61.44 232.96-40.96 48.64-51.2 112.64-79.36 181.76-79.36 143.36 0 258.56 122.88 258.56 276.48 0 133.12-94.72 248.32-215.040 268.8zM765.44 135.68c-56.32 0-107.52 25.6-145.92 71.68-5.12 7.68-15.36 12.8-25.6 12.8-2.56 0-7.68 0-10.24-2.56-74.24-23.040-148.48-7.68-209.92 35.84-7.68 5.12-20.48 7.68-30.72 5.12-20.48-7.68-43.52-10.24-64-10.24-120.32 0-217.6 107.52-217.6 238.080s97.28 238.080 217.6 238.080c23.040 0 46.080-5.12 66.56-12.8 10.24-2.56 20.48-2.56 30.72 5.12 40.96 28.16 89.6 43.52 138.24 43.52 104.96 0 199.68-71.68 235.52-179.2 5.12-12.8 15.36-20.48 28.16-23.040 99.84-7.68 176.64-102.4 176.64-209.92 5.12-117.76-81.92-212.48-189.44-212.48zM524.8 665.6c-38.4 0-66.56-15.36-84.48-46.080s-30.72-74.24-30.72-130.56c0-56.32 10.24-102.4 30.72-133.12s48.64-46.080 84.48-46.080c35.84 0 64 15.36 84.48 46.080s30.72 74.24 30.72 130.56c0 56.32-10.24 99.84-28.16 130.56s-48.64 48.64-87.040 48.64zM524.8 366.080c-17.92 0-30.72 10.24-40.96 30.72s-12.8 51.2-12.8 89.6c0 38.4 5.12 69.12 12.8 89.6 10.24 20.48 23.040 30.72 40.96 30.72 35.84 0 53.76-40.96 53.76-120.32s-17.92-120.32-53.76-120.32z" />
<glyph unicode="&#xe92a;" glyph-name="oilgas" data-tags="oil&gas" d="M355.84 445.44c0 0 0 0 0 0s0 0 0 0c-2.56 2.56-5.12 2.56-5.12 2.56-2.56 0-2.56 0-5.12 0 0 0-2.56 0-2.56 0s0 0 0 0c-2.56 0-5.12 0-7.68-2.56-2.56 0-5.12-2.56-7.68-5.12 0 0 0 0 0 0s0 0 0-2.56-2.56-2.56-2.56-5.12c0-2.56 0-2.56 0-5.12 0 0 0-2.56 0-2.56 0-17.92-23.040-20.48-30.72-20.48-15.36 0-30.72 12.8-30.72 28.16 0 7.68 2.56 12.8 5.12 17.92 0 0 2.56 2.56 2.56 5.12 56.32 115.2-33.28 209.92-89.6 245.76-7.68 5.12-17.92 5.12-25.6-2.56s-7.68-17.92-2.56-25.6c0 0 46.080-84.48-104.96-232.96-33.28-23.040-48.64-61.44-48.64-102.4 0-81.92 69.12-151.040 153.6-151.040 0 0 0 0 0 0s0 0 0 0 0 0 0 0c2.56 0 5.12 0 7.68 2.56 0 0 2.56 0 2.56 2.56 2.56 0 2.56 2.56 5.12 5.12 0 0 0 0 0 0s0 0 0 2.56c0 0 0 2.56 2.56 5.12 0 2.56 0 2.56 0 5.12 0 0 0 0 0 2.56 0 0 0 0 0 2.56s0 2.56 0 5.12 0 2.56-2.56 2.56c0 0-2.56 2.56-2.56 2.56s-2.56 2.56-2.56 2.56c0 0 0 0-2.56 2.56-17.92 12.8-23.040 28.16-25.6 38.4-2.56 15.36 2.56 30.72 10.24 40.96 10.24 12.8 15.36 25.6 17.92 40.96 10.24-12.8 20.48-20.48 20.48-25.6 0-30.72 23.040-56.32 51.2-56.32 12.8 0 25.6 5.12 33.28 15.36 0-2.56 0-2.56 0-5.12 0-15.36-12.8-33.28-38.4-48.64 0 0 0 0 0-2.56 0 0-2.56-2.56-2.56-2.56 2.56-5.12 2.56-5.12 2.56-7.68 0 0 0-2.56-2.56-2.56 0-2.56 0-2.56 0-5.12 0 0 0 0 0-2.56 0 0 0-2.56 0-2.56 0-2.56 0-2.56 0-5.12s0-2.56 2.56-5.12c0 0 0-2.56 0-2.56s0 0 2.56 0c0 0 2.56-2.56 2.56-2.56s2.56-2.56 2.56-2.56c0 0 2.56 0 2.56-2.56 2.56 0 2.56 0 5.12 0 0 0 0 0 2.56 0 84.48 0 153.6 66.56 153.6 151.040 0 43.52-15.36 79.36-46.080 110.080 0 0 0 0 0 0zM309.76 248.32c2.56 7.68 5.12 17.92 5.12 25.6 0 38.4-33.28 64-33.28 64-5.12 5.12-15.36 5.12-23.040 2.56s-10.24-10.24-10.24-17.92c0-7.68-5.12-15.36-10.24-15.36s-10.24 7.68-10.24 15.36c0 25.6-38.4 64-71.68 92.16-7.68 5.12-17.92 7.68-25.6 2.56s-10.24-15.36-10.24-23.040c2.56-12.8 7.68-46.080-5.12-58.88-15.36-20.48-23.040-48.64-20.48-74.24 0-5.12 2.56-12.8 5.12-17.92-35.84 17.92-61.44 53.76-61.44 94.72 0 28.16 12.8 56.32 33.28 76.8 97.28 94.72 122.88 168.96 125.44 220.16 30.72-33.28 64-89.6 33.28-153.6-7.68-12.8-12.8-25.6-12.8-40.96 0-38.4 33.28-71.68 71.68-71.68 23.040 0 43.52 7.68 56.32 20.48 7.68-15.36 12.8-33.28 12.8-51.2 0-38.4-17.92-71.68-48.64-89.6zM1003.52 453.12c-5.12 10.24-12.8 25.6-17.92 35.84l-115.2 194.56c-12.8 20.48-43.52 20.48-56.32 0l-115.2-194.56c-5.12-10.24-12.8-25.6-17.92-35.84 0-2.56-20.48-43.52-20.48-81.92 0-99.84 81.92-181.76 181.76-181.76s181.76 79.36 181.76 181.76c0 35.84-20.48 79.36-20.48 81.92zM842.24 230.4c-76.8 0-140.8 64-140.8 140.8 0 23.040 12.8 53.76 17.92 64 5.12 7.68 12.8 23.040 17.92 30.72l107.52 179.2 107.52-179.2c5.12-7.68 12.8-23.040 17.92-30.72 5.12-10.24 17.92-40.96 17.92-64-5.12-79.36-69.12-140.8-145.92-140.8zM529.92 960c-17.92 0-33.28-15.36-33.28-33.28v-960c0-17.92 15.36-33.28 33.28-33.28s33.28 15.36 33.28 33.28v960c0 17.92-15.36 33.28-33.28 33.28zM911.36 450.56c-10.24-5.12-12.8-17.92-7.68-28.16 10.24-15.36 12.8-28.16 12.8-43.52 0-40.96-33.28-74.24-74.24-74.24-12.8 0-20.48-10.24-20.48-20.48s10.24-20.48 20.48-20.48c64 0 117.76 51.2 117.76 117.76 0 20.48-5.12 43.52-20.48 64-7.68 7.68-20.48 10.24-28.16 5.12z" />
<glyph unicode="&#xe92b;" glyph-name="balances" data-tags="balances" d="M709.12 801.28c5.12 0 7.68 5.12 5.12 10.24-5.12 25.6-2.56 53.76 10.24 76.8 15.36 25.6 43.52 46.080 74.24 53.76 28.16 5.12 58.88 0 81.92-15.36 25.6-15.36 40.96-40.96 48.64-69.12 10.24-51.2-12.8-99.84-58.88-122.88-7.68-2.56-23.040-7.68-33.28-2.56-5.12 2.56-10.24 7.68-12.8 17.92v0c-2.56 12.8 5.12 15.36 7.68 15.36 5.12 2.56 7.68 5.12 10.24 10.24s0 10.24 0 15.36c25.6 10.24 43.52 40.96 35.84 71.68 0 2.56-2.56 7.68-2.56 10.24-2.56 2.56-5.12 5.12-10.24 5.12l-15.36-2.56-7.68 33.28c0 5.12-5.12 7.68-10.24 5.12-5.12 0-7.68-5.12-5.12-10.24l7.68-30.72-38.4-7.68-7.68 30.72c0 5.12-5.12 7.68-10.24 5.12-5.12 0-7.68-5.12-5.12-10.24l7.68-30.72-15.36-2.56c-5.12 0-7.68-5.12-5.12-7.68 0-2.56 0-7.68 2.56-10.24 2.56-17.92 15.36-33.28 28.16-40.96 10.24-5.12 20.48-10.24 30.72-10.24 2.56 0 2.56 0 5.12 0 0-2.56 2.56-5.12 0-7.68-12.8-5.12-20.48-17.92-15.36-33.28 0 0 0 0 0 0s0 0 0 0c2.56-15.36 10.24-23.040 20.48-28.16 5.12-2.56 12.8-5.12 17.92-5.12 12.8 0 23.040 2.56 28.16 7.68 51.2 25.6 79.36 84.48 66.56 140.8-7.68 33.28-25.6 61.44-56.32 79.36-28.16 17.92-61.44 25.6-94.72 17.92-35.84-7.68-66.56-30.72-84.48-64-15.36-25.6-17.92-56.32-12.8-87.040 2.56-7.68 7.68-10.24 12.8-7.68zM796.16 808.96c-10.24 7.68-17.92 17.92-20.48 30.72 0 0 0 0 0 2.56l15.36 2.56c0 0 0 0 0 0s0 0 0 0l53.76 12.8c0 0 0 0 0 0s0 0 0 0l15.36 2.56c0 0 0 0 0-2.56 5.12-25.6-10.24-51.2-33.28-56.32-10.24 0-20.48 2.56-30.72 7.68zM1018.88 634.88c-5.12 17.92-23.040 30.72-40.96 25.6l-929.28-204.8c-17.92-5.12-30.72-20.48-25.6-40.96 2.56-15.36 17.92-25.6 33.28-25.6 2.56 0 5.12 0 7.68 0l424.96 92.16v-309.76c-125.44-12.8-220.16-99.84-220.16-202.24v-33.28h509.44v33.28c0 104.96-97.28 189.44-220.16 202.24v327.68l437.76 94.72c15.36 5.12 28.16 20.48 23.040 40.96zM704 2.56h-363.52c20.48 61.44 94.72 104.96 181.76 104.96s161.28-43.52 181.76-104.96zM79.36 775.68c2.56 7.68-2.56 17.92-5.12 17.92-5.12 2.56-17.92-2.56-20.48-12.8-2.56-7.68 0-15.36 5.12-23.040 7.68 7.68 17.92 10.24 20.48 17.92zM217.6 596.48c12.8-7.68 25.6-12.8 38.4-12.8 5.12 0 10.24 0 15.36 2.56 0 0 0 0 0 0 2.56 0 2.56 0 2.56 2.56 0 0 0 0 0 0s0 0 0 0 0 2.56 0 2.56c0 0 0 2.56 0 2.56s0 0 0 0 0 2.56-2.56 2.56c0 0 0 2.56-2.56 2.56 0 0 0 0 0 0-10.24 5.12-15.36 12.8-17.92 17.92-2.56 7.68-2.56 17.92 0 23.040 5.12 7.68 5.12 17.92 2.56 25.6 10.24-5.12 15.36-12.8 17.92-15.36 2.56-7.68 5.12-12.8 12.8-17.92 5.12-2.56 10.24-5.12 15.36-2.56 7.68 2.56 12.8 7.68 15.36 12.8 2.56-2.56 2.56-5.12 2.56-7.68 2.56-7.68-2.56-17.92-12.8-30.72 0 0 0 0 0 0s0-2.56 0-2.56c0 0 0-2.56 0-2.56s0 0 0 0 0-2.56 2.56-2.56c0 0 0 0 0-2.56 0 0 0 0 0 0 2.56 0 2.56-2.56 5.12-2.56 0 0 0 0 0 0s0 0 0 0 0 0 2.56 0c38.4 7.68 64 46.080 56.32 87.040-5.12 17.92-15.36 35.84-30.72 46.080 0 0-2.56 0-2.56 0s-2.56 0-2.56 0c0 0 0 0 0 0-2.56 0-2.56-2.56-2.56-2.56s-2.56 0-2.56-2.56c0 0 0 0 0 0s0-2.56 0-2.56c0 0 0-2.56 0-2.56 2.56-12.8-12.8-15.36-15.36-15.36-5.12 0-10.24 0-12.8 2.56s-5.12 5.12-7.68 10.24c0 2.56 0 7.68 2.56 12.8 15.36 58.88-38.4 97.28-66.56 107.52-2.56 0-7.68 0-10.24-2.56s-2.56-7.68 0-10.24c0 0 33.28-35.84-25.6-125.44-10.24-15.36-15.36-35.84-10.24-53.76 7.68-15.36 17.92-33.28 33.28-43.52zM209.92 688.64c40.96 61.44 40.96 99.84 35.84 122.88 20.48-12.8 46.080-38.4 38.4-76.8-2.56-7.68-5.12-15.36-2.56-20.48 2.56-7.68 7.68-15.36 15.36-20.48s15.36-7.68 25.6-5.12c12.8 2.56 20.48 10.24 25.6 17.92 7.68-7.68 12.8-17.92 15.36-28.16 5.12-20.48-5.12-43.52-20.48-56.32 2.56 7.68 2.56 12.8 2.56 20.48-2.56 17.92-20.48 25.6-20.48 25.6-2.56 0-5.12 0-7.68 0-2.56-2.56-2.56-5.12-2.56-7.68 0-5.12 0-10.24-5.12-10.24-2.56 0-2.56 0-5.12 0-2.56 2.56-5.12 5.12-5.12 7.68-2.56 12.8-28.16 28.16-43.52 35.84-2.56 2.56-7.68 0-10.24-2.56s-2.56-5.12-2.56-10.24c2.56-5.12 7.68-23.040 5.12-30.72-5.12-10.24-5.12-25.6-2.56-35.84 2.56-2.56 2.56-7.68 7.68-12.8-7.68 0-15.36 5.12-23.040 7.68-12.8 7.68-20.48 20.48-23.040 35.84-7.68 15.36-5.12 30.72 2.56 43.52zM23.040 547.84c0 0 0-2.56 0-2.56 0-2.56 0-5.12 2.56-7.68 2.56 0 2.56-2.56 5.12-2.56s2.56 0 2.56 0 0 0 0 0 2.56 0 2.56 0l51.2 10.24c0 0 0 0 0 0s0 0 0 0l53.76 12.8c0 0 2.56 0 2.56 0s0 0 0 0c2.56 0 5.12 2.56 7.68 5.12 0 2.56 0 5.12 0 7.68 0 0 0 2.56 0 2.56s0 0 0 0l-53.76 156.16c0 0 0 2.56-2.56 2.56 0 2.56 0 5.12-2.56 5.12-2.56 2.56-5.12 0-7.68 0 0 0-2.56 0-2.56 0l-30.72-5.12c0 0 0 0 0 0s0 0 0 0l-30.72-7.68c0 0-2.56 0-2.56-2.56-2.56 0-5.12 0-7.68-2.56s-2.56-5.12 0-7.68c0 0 0-2.56 0-2.56l12.8-161.28zM38.4 563.2l-5.12 48.64 33.28-15.36-28.16-33.28zM53.76 555.52l23.040 25.6 5.12-20.48-28.16-5.12zM94.72 565.76l-5.12 20.48 30.72-15.36-25.6-5.12zM133.12 583.68l-40.96 17.92 23.040 28.16 17.92-46.080zM84.48 616.96l-10.24 51.2 33.28-23.040-23.040-28.16zM87.040 711.68l15.36-43.52-30.72 20.48 15.36 23.040zM71.68 719.36l-7.68-10.24v7.68l7.68 2.56zM56.32 665.6l10.24-51.2-30.72 15.36 20.48 35.84zM46.080 714.24l2.56-10.24-10.24 7.68 7.68 2.56zM51.2 683.52l-20.48-30.72-2.56 48.64 23.040-17.92zM51.2 739.84c0 12.8-5.12 28.16-12.8 33.28-12.8 10.24-30.72 5.12-33.28 0s0-20.48 10.24-28.16c7.68-5.12 20.48-5.12 35.84-5.12zM455.68 660.48c2.56-5.12 7.68-7.68 12.8-7.68 0 0 2.56 0 2.56 0l12.8 2.56c2.56-5.12 5.12-10.24 10.24-12.8s10.24-5.12 17.92-5.12c2.56 0 5.12 0 7.68 0 15.36 2.56 23.040 15.36 25.6 30.72l23.040 5.12c2.56-5.12 5.12-10.24 10.24-12.8s10.24-5.12 17.92-5.12c2.56 0 5.12 0 7.68 0 15.36 2.56 23.040 15.36 25.6 30.72l12.8 2.56c5.12 0 10.24 7.68 10.24 12.8l2.56 110.080c0 2.56-2.56 7.68-5.12 7.68-2.56 2.56-5.12 2.56-10.24 2.56l-12.8-2.56c-5.12 20.48-12.8 33.28-20.48 38.4-5.12 2.56-7.68 2.56-12.8 2.56-2.56 0-10.24 2.56-15.36 5.12-10.24 5.12-20.48 10.24-30.72 10.24-7.68 0-17.92-7.68-25.6-12.8-5.12-5.12-10.24-10.24-15.36-10.24-33.28-7.68-40.96-20.48-53.76-40.96l-5.12-5.12c-2.56-2.56-5.12-7.68-7.68-10.24-5.12-5.12-10.24-10.24-12.8-20.48l-12.8-2.56c-2.56 0-5.12-2.56-7.68-5.12s-2.56-7.68 0-10.24l48.64-97.28zM512 655.36c-5.12 0-7.68 0-12.8 2.56-2.56 2.56-5.12 5.12-7.68 10.24-2.56 7.68 2.56 17.92 12.8 17.92 0 0 2.56 0 2.56 0 2.56 0 5.12 0 7.68-2.56s5.12-5.12 7.68-10.24 0-15.36-10.24-17.92zM596.48 673.28c-5.12 0-7.68 0-12.8 2.56-2.56 2.56-5.12 5.12-7.68 10.24-2.56 7.68 2.56 17.92 12.8 17.92 0 0 2.56 0 2.56 0 2.56 0 5.12 0 7.68-2.56s5.12-5.12 7.68-10.24c2.56-7.68-2.56-15.36-10.24-17.92zM450.56 785.92c2.56 2.56 7.68 7.68 10.24 12.8l2.56 2.56c12.8 17.92 17.92 28.16 43.52 33.28 7.68 2.56 15.36 7.68 20.48 12.8 5.12 2.56 12.8 10.24 15.36 10.24 7.68 0 17.92-5.12 25.6-7.68 10.24-5.12 17.92-7.68 28.16-7.68 2.56-2.56 7.68-10.24 12.8-25.6l-161.28-35.84c0 2.56 2.56 2.56 2.56 5.12zM634.88 806.4l-2.56-102.4-10.24-2.56c-2.56 5.12-5.12 10.24-10.24 12.8-7.68 5.12-15.36 5.12-23.040 5.12-15.36-2.56-23.040-15.36-25.6-30.72l-25.6-5.12c-2.56 5.12-5.12 10.24-10.24 12.8-7.68 5.12-15.36 5.12-23.040 5.12-15.36-2.56-23.040-15.36-25.6-30.72l-10.24-2.56-43.52 89.6 209.92 48.64z" />
<glyph unicode="&#xe92c;" glyph-name="pricesdegree" data-tags="prices&degree" d="M870.4 192v424.96c0 12.8-10.24 23.040-23.040 23.040s-23.040-10.24-23.040-23.040v-424.96c-35.84-10.24-58.88-40.96-58.88-79.36 0-46.080 38.4-84.48 84.48-84.48s84.48 38.4 84.48 84.48c-2.56 38.4-28.16 69.12-64 79.36zM965.12 245.76v596.48c0 64-51.2 117.76-117.76 117.76s-117.76-53.76-117.76-117.76v-596.48c-38.4-33.28-58.88-81.92-58.88-133.12 0-97.28 79.36-176.64 176.64-176.64s176.64 79.36 176.64 176.64c0 51.2-23.040 99.84-58.88 133.12zM847.36 0c-61.44 0-110.080 48.64-110.080 110.080 0 35.84 17.92 69.12 46.080 89.6 7.68 5.12 12.8 15.36 12.8 25.6v616.96c0 28.16 23.040 53.76 51.2 53.76s51.2-23.040 51.2-53.76v-611.84c0-10.24 5.12-20.48 12.8-25.6 28.16-20.48 46.080-53.76 46.080-89.6 2.56-64-48.64-115.2-110.080-115.2zM435.2 678.4c7.68-15.36 28.16-23.040 43.52-15.36s23.040 28.16 15.36 43.52c-35.84 74.24-117.76 125.44-212.48 133.12v87.040c0 17.92-15.36 33.28-33.28 33.28s-33.28-15.36-33.28-33.28v-89.6c-115.2-15.36-204.8-94.72-209.92-194.56-5.12-120.32 97.28-166.4 209.92-207.36v-312.32c-69.12 7.68-128 43.52-153.6 94.72-7.68 15.36-28.16 23.040-43.52 15.36s-23.040-28.16-15.36-43.52c35.84-74.24 117.76-125.44 212.48-133.12v-89.6c0-15.36 15.36-30.72 33.28-30.72s33.28 15.36 33.28 33.28v89.6c115.2 15.36 204.8 94.72 209.92 192 5.12 89.6-69.12 171.52-209.92 227.84v294.4c69.12-7.68 128-43.52 153.6-94.72zM215.040 504.32c-110.080 43.52-148.48 74.24-143.36 135.68 2.56 66.56 64 117.76 143.36 130.56v-266.24zM424.96 256c-2.56-66.56-64-117.76-143.36-130.56v281.6c94.72-43.52 145.92-97.28 143.36-151.040z" />
<glyph unicode="&#xe92d;" glyph-name="demand" data-tags="demand" d="M547.84 524.8c10.24 0 20.48 10.24 20.48 20.48v240.64c0 10.24-10.24 20.48-20.48 20.48s-20.48-10.24-20.48-20.48v-240.64c0-10.24 10.24-20.48 20.48-20.48zM514.56 960c-2.56 0-2.56 0 0 0-87.040 0-166.4-33.28-227.84-92.16-61.44-61.44-94.72-140.8-94.72-225.28 0-58.88 15.36-112.64 43.52-161.28 28.16-56.32 71.68-102.4 92.16-128 5.12-5.12 7.68-10.24 10.24-12.8 0-7.68 0-25.6 0-38.4 0-43.52-2.56-89.6 25.6-115.2 7.68-7.68 7.68-7.68 5.12-46.080 0-15.36-2.56-35.84-2.56-64 0-25.6 12.8-53.76 38.4-79.36 28.16-28.16 74.24-58.88 102.4-58.88v0c30.72 0 76.8 35.84 99.84 56.32 28.16 28.16 40.96 53.76 40.96 81.92 0 25.6-2.56 46.080-2.56 64-2.56 38.4-2.56 38.4 7.68 46.080 25.6 25.6 25.6 69.12 25.6 115.2 0 12.8 0 30.72 0 38.4 2.56 2.56 7.68 7.68 12.8 12.8 25.6 25.6 71.68 74.24 99.84 133.12 28.16 48.64 40.96 102.4 40.96 156.16 0 171.52-140.8 317.44-317.44 317.44zM506.88 2.56c-12.8 5.12-40.96 23.040-58.88 43.52h117.76c-17.92-20.48-43.52-40.96-58.88-43.52zM432.64 110.080c0 7.68 0 12.8 0 17.92h145.92c0-5.12 0-12.8 0-17.92h-145.92zM732.16 512v0c-23.040-51.2-64-94.72-89.6-117.76-7.68-7.68-15.36-15.36-17.92-20.48-12.8-17.92-12.8-40.96-12.8-76.8 0-17.92 0-58.88-5.12-66.56-15.36-12.8-20.48-25.6-25.6-38.4h-148.48c-2.56 12.8-10.24 25.6-23.040 38.4-5.12 10.24-5.12 48.64-5.12 66.56 0 35.84 0 58.88-12.8 76.8-2.56 5.12-7.68 10.24-15.36 17.92-23.040 25.6-58.88 69.12-84.48 117.76-23.040 40.96-35.84 84.48-35.84 130.56 0 69.12 28.16 133.12 76.8 179.2 48.64 48.64 112.64 74.24 179.2 74.24h2.56c140.8 0 253.44-115.2 253.44-256-2.56-43.52-12.8-87.040-35.84-125.44zM619.52 506.88h-215.040c-10.24 0-20.48-10.24-20.48-20.48s10.24-20.48 20.48-20.48h215.040c10.24 0 20.48 10.24 20.48 20.48s-7.68 20.48-20.48 20.48zM619.52 709.12c-10.24 0-20.48-10.24-20.48-20.48v-143.36c0-10.24 10.24-20.48 20.48-20.48s20.48 10.24 20.48 20.48v143.36c0 12.8-7.68 20.48-20.48 20.48zM476.16 524.8c10.24 0 20.48 10.24 20.48 20.48v192c0 10.24-10.24 20.48-20.48 20.48s-20.48-10.24-20.48-20.48v-192c0-10.24 10.24-20.48 20.48-20.48zM404.48 524.8c10.24 0 20.48 10.24 20.48 20.48v120.32c0 10.24-10.24 20.48-20.48 20.48s-20.48-10.24-20.48-20.48v-120.32c0-10.24 7.68-20.48 20.48-20.48z" />
<glyph unicode="&#xe92e;" glyph-name="industry" data-tags="industry" d="M583.68 168.96h120.32v79.36h-120.32v-79.36zM417.28 168.96h120.32v79.36h-120.32v-79.36zM752.64 168.96h117.76v79.36h-120.32v-79.36zM1024 412.16l-20.48 504.32c0 23.040-20.48 43.52-46.080 43.52h-58.88c-23.040 0-43.52-17.92-46.080-43.52l-17.92-483.84h-38.4l-17.92 483.84c0 25.6-20.48 43.52-46.080 43.52h-58.88c-23.040 0-43.52-20.48-46.080-43.52l-17.92-483.84h-61.44l-232.96 209.92c-12.8 10.24-28.16 12.8-40.96 7.68s-23.040-20.48-23.040-35.84v-140.8l-186.88 168.96c0 0 0 0 0 0-12.8 10.24-28.16 12.8-40.96 7.68-15.36-5.12-23.040-20.48-23.040-35.84v-632.32c0-25.6 20.48-43.52 43.52-43.52h934.4c25.6 0 43.52 20.48 43.52 43.52v407.040c2.56 5.12 2.56 17.92 2.56 23.040zM960 0h-896v552.96l186.88-168.96c12.8-10.24 28.16-12.8 40.96-7.68s23.040 20.48 23.040 35.84v140.8l186.88-168.96c10.24-10.24 28.16-15.36 43.52-15.36h79.36c25.6 0 43.52 17.92 46.080 43.52l20.48 483.84h20.48l20.48-483.84c0-23.040 20.48-43.52 46.080-43.52h76.8c23.040 0 43.52 20.48 46.080 43.52l17.92 483.84h20.48l20.48-483.84c0-5.12 0-15.36 0-23.040v-389.12z" />
<glyph unicode="&#xe92f;" glyph-name="residential" data-tags="residential" d="M1013.76 504.32l-138.24 130.56v235.52c0 17.92-15.36 33.28-33.28 33.28h-156.16c-17.92 0-33.28-15.36-33.28-33.28v-30.72l-120.32 110.080c-12.8 12.8-30.72 12.8-43.52 0l-478.72-445.44c-10.24-10.24-12.8-23.040-7.68-35.84s17.92-20.48 30.72-20.48h110.080v-478.72c0-17.92 15.36-33.28 33.28-33.28h240.64c17.92 0 33.28 15.36 33.28 33.28v256h125.44v-256c0-17.92 15.36-33.28 33.28-33.28h240.64c17.92 0 33.28 15.36 33.28 33.28v478.72h110.080c12.8 0 25.6 7.68 30.72 20.48 2.56 12.8 0 28.16-10.24 35.84zM719.36 839.68h89.6v-143.36l-89.6 84.48v58.88zM847.36 514.56c-17.92 0-33.28-15.36-33.28-33.28v-478.72h-174.080v256c0 17.92-15.36 33.28-33.28 33.28h-192c-17.92 0-33.28-15.36-33.28-33.28v-256h-171.52v460.8c0 2.56 0 5.12 0 10.24 0 2.56 0 5.12 0 10.24 0 17.92-15.36 33.28-33.28 33.28h-61.44l396.8 366.080 396.8-368.64h-61.44z" />
<glyph unicode="&#xe930;" glyph-name="transport" data-tags="transport" d="M990.72 622.080h-46.080c-25.6 0-48.64-15.36-61.44-38.4l-58.88 174.080c-20.48 58.88-76.8 104.96-130.56 104.96h-366.080c-53.76 0-110.080-46.080-130.56-104.96l-58.88-174.080c-10.24 20.48-35.84 38.4-58.88 38.4h-46.080c-17.92 0-33.28-15.36-33.28-33.28s15.36-33.28 33.28-33.28h43.52c0 0 2.56 0 2.56 0l7.68-25.6c-23.040-35.84-35.84-79.36-35.84-128v-168.96c0-17.92 15.36-33.28 33.28-33.28h28.16v-92.16c0-43.52 33.28-79.36 74.24-79.36h102.4c40.96 0 74.24 35.84 74.24 79.36v92.16h296.96v-92.16c0-43.52 33.28-79.36 74.24-79.36h102.4c40.96 0 74.24 35.84 74.24 79.36v92.16h28.16c17.92 0 33.28 15.36 33.28 33.28v168.96c0 48.64-12.8 94.72-35.84 128l7.68 23.040c0 0 2.56 2.56 2.56 2.56h46.080c17.92 0 33.28 15.36 33.28 33.28-2.56 17.92-17.92 33.28-35.84 33.28zM258.56 737.28c12.8 35.84 46.080 61.44 69.12 61.44h366.080c23.040 0 56.32-25.6 69.12-61.44l46.080-133.12h-593.92l43.52 133.12zM296.96 110.080c0-7.68-5.12-12.8-7.68-12.8h-102.4c-2.56 0-7.68 5.12-7.68 12.8v92.16h120.32v-92.16zM844.8 110.080c0-7.68-5.12-12.8-7.68-12.8h-102.4c-5.12 0-7.68 5.12-7.68 12.8v92.16h117.76v-92.16zM906.24 266.24h-788.48v135.68c0 40.96 12.8 76.8 30.72 102.4 0 0 2.56 2.56 2.56 2.56 15.36 17.92 33.28 30.72 53.76 30.72h614.4c20.48 0 38.4-10.24 53.76-30.72 0-2.56 2.56-2.56 2.56-2.56 17.92-25.6 30.72-61.44 30.72-102.4v-135.68zM286.72 445.44h-81.92c-5.12 0-10.24-2.56-12.8-5.12s-5.12-7.68-2.56-12.8l10.24-51.2c2.56-7.68 7.68-12.8 17.92-12.8h97.28c5.12 0 10.24 2.56 12.8 5.12s5.12 7.68 2.56 12.8l-7.68 35.84c-2.56 15.36-20.48 28.16-35.84 28.16zM819.2 445.44h-81.92c-17.92 0-33.28-12.8-35.84-30.72l-7.68-35.84c0-5.12 0-10.24 2.56-12.8s7.68-5.12 12.8-5.12h97.28c7.68 0 15.36 5.12 17.92 12.8l10.24 51.2c0 5.12 0 10.24-2.56 12.8-5.12 5.12-7.68 7.68-12.8 7.68z" />
<glyph unicode="&#xe931;" glyph-name="services" data-tags="services" d="M611.84 640h-79.36v-120.32h79.36v120.32zM611.84 806.4h-79.36v-120.32h79.36v120.32zM611.84 471.040h-79.36v-120.32h79.36v120.32zM215.040 279.040h-79.36v-120.32h79.36v120.32zM611.84 304.64h-79.36v-120.32h79.36v120.32zM215.040 616.96h-79.36v-120.32h79.36v120.32zM215.040 448h-79.36v-120.32h79.36v120.32zM893.44 448h-79.36v-120.32h79.36v120.32zM893.44 279.040h-79.36v-120.32h79.36v120.32zM893.44 616.96h-79.36v-120.32h79.36v120.32zM990.72 768h-248.32v158.72c0 17.92-15.36 33.28-33.28 33.28h-396.8c-17.92 0-33.28-15.36-33.28-33.28v-158.72h-245.76c-17.92 0-33.28-15.36-33.28-33.28v-768c0-15.36 15.36-30.72 33.28-30.72h960c17.92 0 33.28 15.36 33.28 33.28v768c-2.56 15.36-17.92 30.72-35.84 30.72zM279.040 0h-215.040v704h215.040v-704zM678.4 0h-332.8v896h332.8v-896zM960 0h-215.040v704h215.040v-704zM494.080 471.040h-79.36v-120.32h79.36v120.32zM494.080 304.64h-79.36v-120.32h79.36v120.32zM494.080 640h-79.36v-120.32h79.36v120.32zM494.080 806.4h-79.36v-120.32h79.36v120.32z" />
<glyph unicode="&#xe932;" glyph-name="overview" data-tags="overview" d="M284.16 337.92h-35.84v-53.76h35.84v53.76zM465.92 936.96c0 12.8-10.24 23.040-23.040 23.040h-28.16c-12.8 0-23.040-10.24-23.040-23.040l-7.68-217.6h-10.24l-7.68 217.6c0 12.8-10.24 23.040-23.040 23.040h-28.16c-12.8 0-23.040-10.24-23.040-23.040l-7.68-217.6h-28.16l-104.96 94.72c-7.68 5.12-15.36 7.68-23.040 2.56-7.68-2.56-12.8-10.24-12.8-17.92v-56.32l-79.36 71.68c-7.68 5.12-15.36 7.68-23.040 2.56-7.68-2.56-12.8-10.24-12.8-17.92v-289.28c0-12.8 10.24-23.040 23.040-23.040h427.52c12.8 0 23.040 10.24 23.040 23.040v186.88c0 2.56 0 7.68 0 12.8l-7.68 227.84zM437.76 522.24h-401.92v240.64l79.36-71.68c7.68-5.12 15.36-7.68 23.040-5.12s12.8 10.24 12.8 20.48v56.32l79.36-71.68c5.12-5.12 15.36-7.68 23.040-7.68h35.84c12.8 0 23.040 10.24 23.040 23.040l7.68 217.6h2.56l7.68-217.6c0-12.8 10.24-23.040 23.040-23.040h35.84c12.8 0 23.040 10.24 23.040 23.040l7.68 217.6h2.56l7.68-217.6c0-2.56 0-7.68 0-10.24v-174.080zM284.16 184.32h-35.84v-53.76h35.84v53.76zM284.16 107.52h-35.84v-53.76h35.84v53.76zM926.72 128h-35.84c-7.68 0-15.36-5.12-17.92-15.36l-2.56-15.36c0-2.56 0-5.12 2.56-5.12 0-2.56 5.12-2.56 5.12-2.56h43.52c5.12 0 7.68 2.56 7.68 7.68l5.12 23.040c0 2.56 0 5.12-2.56 5.12 0 2.56-2.56 2.56-5.12 2.56zM565.76 719.36h48.64v-215.040c0-10.24 7.68-17.92 17.92-17.92h110.080c10.24 0 17.92 7.68 17.92 17.92v112.64h51.2v-112.64c0-10.24 7.68-17.92 17.92-17.92h110.080c10.24 0 17.92 7.68 17.92 17.92v215.040h46.080c7.68 0 15.36 5.12 17.92 12.8s0 15.36-5.12 20.48l-61.44 58.88v104.96c0 10.24-7.68 17.92-17.92 17.92h-71.68c-10.24 0-17.92-7.68-17.92-17.92v-7.68l-48.64 46.080c-7.68 7.68-17.92 7.68-25.6 0l-220.16-204.8c-5.12-5.12-7.68-12.8-5.12-20.48 5.12-5.12 10.24-10.24 17.92-10.24zM883.2 896h33.28v-53.76l-33.28 30.72v23.040zM785.92 916.48l171.52-161.28h-17.92c-10.24 0-17.92-7.68-17.92-17.92v-215.040h-71.68v112.64c0 10.24-7.68 17.92-17.92 17.92h-89.6c-10.24 0-17.92-7.68-17.92-17.92v-112.64h-71.68v207.36c0 2.56 0 2.56 0 5.12s0 2.56 0 5.12c0 10.24-7.68 17.92-17.92 17.92h-20.48l171.52 158.72zM1006.080 212.48h-20.48c-10.24 0-20.48-5.12-25.6-12.8l-25.6 74.24c-10.24 28.16-38.4 51.2-64 51.2h-166.4c-25.6 0-53.76-23.040-64-51.2l-25.6-74.24c-7.68 7.68-15.36 12.8-25.6 12.8h-20.48c-10.24 0-17.92-7.68-17.92-17.92s7.68-17.92 17.92-17.92h17.92l2.56-7.68c-10.24-15.36-15.36-35.84-15.36-58.88v-76.8c0-10.24 7.68-17.92 17.92-17.92h7.68v-38.4c0-20.48 17.92-38.4 38.4-38.4h46.080c20.48 0 38.4 17.92 38.4 38.4v35.84h128v-38.4c0-20.48 17.92-38.4 38.4-38.4h46.080c20.48 0 38.4 17.92 38.4 38.4v38.4h7.68c10.24 0 17.92 7.68 17.92 17.92v76.8c0 23.040-5.12 43.52-15.36 58.88l2.56 7.68h17.92c10.24 0 17.92 7.68 17.92 17.92s-5.12 20.48-15.36 20.48zM673.28 261.12c5.12 15.36 20.48 25.6 28.16 25.6h168.96c10.24 0 23.040-10.24 28.16-25.6l17.92-56.32h-261.12l17.92 56.32zM683.52-25.6c0 0 0-2.56 0 0l-46.080-2.56c0 0 0 0 0 2.56v38.4h48.64v-38.4zM934.4-25.6c0 0 0-2.56 0 0l-46.080-2.56c0 0 0 0 0 2.56v38.4h48.64v-38.4zM962.56 51.2h-353.28v58.88c0 30.72 17.92 58.88 35.84 58.88h279.040c20.48 0 35.84-28.16 35.84-58.88v-58.88zM102.4 250.88h-35.84v-53.76h35.84v53.76zM102.4 174.080h-35.84v-53.76h35.84v53.76zM230.4 337.92h-35.84v-53.76h35.84v53.76zM102.4 97.28h-35.84v-53.76h35.84v53.76zM284.16 261.12h-35.84v-53.76h35.84v53.76zM194.56 593.92h53.76v35.84h-53.76v-35.84zM412.16 97.28h-35.84v-53.76h35.84v53.76zM458.24 325.12h-110.080v69.12c0 10.24-7.68 17.92-17.92 17.92h-184.32c-10.24 0-17.92-7.68-17.92-17.92v-69.12h-110.080c-10.24 0-17.92-7.68-17.92-17.92v-350.72c0-12.8 7.68-20.48 17.92-20.48h437.76c10.24 0 17.92 7.68 17.92 17.92v350.72c2.56 10.24-5.12 20.48-15.36 20.48zM128-28.16h-92.16v314.88h92.16v-314.88zM309.76-28.16h-143.36v401.92h145.92v-401.92zM437.76-28.16h-92.16v314.88h92.16v-314.88zM271.36 593.92h53.76v35.84h-53.76v-35.84zM348.16 593.92h53.76v35.84h-53.76v-35.84zM412.16 174.080h-35.84v-53.76h35.84v53.76zM230.4 184.32h-35.84v-53.76h35.84v53.76zM230.4 107.52h-35.84v-53.76h35.84v53.76zM230.4 261.12h-35.84v-53.76h35.84v53.76zM412.16 250.88h-35.84v-53.76h35.84v53.76zM683.52 128h-35.84c-2.56 0-5.12 0-5.12-2.56s-2.56-5.12-2.56-5.12l5.12-23.040c0-5.12 5.12-7.68 7.68-7.68h43.52c2.56 0 5.12 0 5.12 2.56s2.56 5.12 2.56 5.12l-5.12 17.92c0 7.68-7.68 12.8-15.36 12.8z" />
<glyph unicode="&#xe933;" glyph-name="company" data-tags="company" d="M199.68 660.48c2.56 0 5.12 0 7.68 2.56l115.2 56.32 115.2-56.32c7.68-5.12 20.48-2.56 25.6 7.68l112.64 158.72 110.080-99.84c5.12-2.56 10.24-5.12 15.36-5.12s10.24 2.56 15.36 7.68l112.64 143.36-2.56-25.6c0-10.24 7.68-20.48 17.92-23.040 0 0 0 0 2.56 0 10.24 0 20.48 7.68 20.48 20.48l5.12 92.16c0 0 0 0 0 2.56s0 5.12 0 5.12c0 0 0 2.56 0 2.56-2.56 2.56-2.56 5.12-5.12 7.68 0 0 0 0 0 0s0 0 0 0 0 0 0 0c-5.12 0-7.68 2.56-10.24 2.56 0 0-2.56 0-2.56 0-2.56 0-5.12 0-5.12 0s0 0-2.56 0l-84.48-28.16c-10.24-2.56-17.92-15.36-12.8-25.6 2.56-10.24 15.36-17.92 25.6-12.8l17.92 5.12-97.28-125.44-107.52 99.84c-5.12 5.12-10.24 5.12-15.36 5.12s-10.24-2.56-15.36-7.68l-115.2-161.28-110.080 53.76c-5.12 2.56-12.8 2.56-17.92 0l-125.44-61.44c-10.24-5.12-15.36-17.92-10.24-28.16 5.12-7.68 12.8-12.8 20.48-12.8zM670.72 660.48c-10.24 0-20.48-10.24-20.48-20.48v-140.8c0-10.24 10.24-20.48 20.48-20.48h56.32c10.24 0 20.48 10.24 20.48 20.48v140.8c0 10.24-10.24 20.48-20.48 20.48h-56.32zM706.56 517.12h-15.36v99.84h15.36v-99.84zM852.48 729.6h-56.32c-10.24 0-20.48-10.24-20.48-20.48v-212.48c0-10.24 10.24-20.48 20.48-20.48h56.32c10.24 0 20.48 10.24 20.48 20.48v212.48c0 12.8-10.24 20.48-20.48 20.48zM832 517.12h-15.36v171.52h15.36v-171.52zM419.84 588.8c-10.24 0-20.48-10.24-20.48-20.48v-71.68c0-10.24 10.24-20.48 20.48-20.48h56.32c10.24 0 20.48 10.24 20.48 20.48v71.68c0 10.24-10.24 20.48-20.48 20.48h-56.32zM458.24 517.12h-15.36v30.72h15.36v-30.72zM921.6 161.28c20.48 23.040 33.28 51.2 33.28 84.48 0 69.12-53.76 125.44-122.88 125.44-25.6 0-48.64-7.68-66.56-20.48-12.8 40.96-48.64 71.68-94.72 71.68-43.52 0-81.92-30.72-92.16-74.24-17.92 15.36-40.96 23.040-66.56 23.040s-48.64-7.68-66.56-20.48c-10.24 40.96-48.64 71.68-92.16 71.68s-81.92-30.72-92.16-74.24c-20.48 15.36-43.52 23.040-69.12 23.040-66.56 0-122.88-56.32-122.88-125.44 0-33.28 12.8-61.44 33.28-84.48-61.44-35.84-102.4-110.080-102.4-192 0-17.92 15.36-33.28 33.28-33.28h960c17.92 0 33.28 15.36 33.28 33.28-2.56 81.92-43.52 156.16-104.96 192zM832 304.64c30.72 0 56.32-25.6 56.32-58.88s-25.6-58.88-56.32-58.88c-30.72 0-56.32 25.6-56.32 58.88-2.56 33.28 25.6 58.88 56.32 58.88zM670.72 373.76c25.6 0 48.64-23.040 48.64-48.64s-20.48-48.64-48.64-48.64-48.64 23.040-48.64 48.64 23.040 48.64 48.64 48.64zM512 304.64c30.72 0 56.32-25.6 56.32-58.88s-25.6-58.88-56.32-58.88c-30.72 0-56.32 25.6-56.32 58.88s25.6 58.88 56.32 58.88zM353.28 373.76c25.6 0 48.64-23.040 48.64-48.64s-20.48-48.64-48.64-48.64-48.64 23.040-48.64 48.64 20.48 48.64 48.64 48.64zM192 304.64c30.72 0 56.32-25.6 56.32-58.88s-25.6-58.88-56.32-58.88c-30.72 0-56.32 25.6-56.32 58.88s25.6 58.88 56.32 58.88zM69.12 2.56c12.8 66.56 64 117.76 122.88 117.76 61.44 0 112.64-51.2 125.44-117.76h-248.32zM322.56 128c-12.8 12.8-25.6 23.040-40.96 33.28 12.8 15.36 23.040 35.84 28.16 56.32 25.6 12.8 56.32 12.8 81.92 0 5.12-20.48 15.36-40.96 28.16-56.32-15.36-7.68-28.16-20.48-40.96-33.28h-56.32zM389.12 2.56c12.8 66.56 64 117.76 122.88 117.76 61.44 0 112.64-51.2 122.88-117.76h-245.76zM642.56 128c-12.8 12.8-25.6 23.040-40.96 33.28 12.8 15.36 23.040 35.84 28.16 56.32 25.6 12.8 56.32 12.8 81.92 0 5.12-20.48 15.36-40.96 28.16-56.32-15.36-7.68-28.16-20.48-40.96-33.28h-56.32zM706.56 2.56c12.8 66.56 64 117.76 122.88 117.76 61.44 0 112.64-51.2 122.88-117.76h-245.76zM171.52 476.16h56.32c10.24 0 20.48 10.24 20.48 20.48v89.6c0 10.24-10.24 20.48-20.48 20.48h-56.32c-10.24 0-20.48-10.24-20.48-20.48v-89.6c0-10.24 10.24-20.48 20.48-20.48zM192 565.76h15.36v-46.080h-15.36v46.080zM545.28 729.6c-10.24 0-20.48-10.24-20.48-20.48v-212.48c0-10.24 10.24-20.48 20.48-20.48h56.32c10.24 0 20.48 10.24 20.48 20.48v212.48c2.56 12.8-7.68 20.48-17.92 20.48h-58.88zM583.68 517.12h-15.36v171.52h15.36v-171.52zM296.96 650.24c-10.24 0-20.48-10.24-20.48-20.48v-133.12c0-10.24 10.24-20.48 20.48-20.48h56.32c10.24 0 20.48 10.24 20.48 20.48v133.12c0 10.24-10.24 20.48-20.48 20.48h-56.32zM332.8 517.12h-15.36v92.16h15.36v-92.16z" />
</font>
</defs>
</svg>
